<?xml version="1.0" standalone="no"?>
<!DOCTYPE svg PUBLIC "-//W3C//DTD SVG 1.1//EN" "http://www.w3.org/Graphics/SVG/1.1/DTD/svg11.dtd" >
<svg xmlns="http://www.w3.org/2000/svg">
<metadata>Generated by IcoMoon</metadata>
<defs>
<font id="icon" horiz-adv-x="1024">
<font-face units-per-em="1024" ascent="960" descent="-64" />
<missing-glyph horiz-adv-x="1024" />
<glyph unicode="&#x20;" horiz-adv-x="512" d="" />
<glyph unicode="&#xe900;" glyph-name="action" d="M0-15.36v926.72c0 26.863 21.777 48.64 48.64 48.64h5.12c26.863 0 48.64-21.777 48.64-48.64v-926.72c0-26.863-21.777-48.64-48.64-48.64h-5.12c-26.863 0-48.64 21.777-48.64 48.64zM921.6-12.8v921.6c0 28.277 22.923 51.2 51.2 51.2s51.2-22.923 51.2-51.2v-921.6c0-28.277-22.923-51.2-51.2-51.2s-51.2 22.923-51.2 51.2zM972.8 857.6h-921.6c-28.277 0-51.2 22.923-51.2 51.2s22.923 51.2 51.2 51.2h921.6c28.277 0 51.2-22.923 51.2-51.2s-22.923-51.2-51.2-51.2zM972.8-64h-921.6c-28.277 0-51.2 22.923-51.2 51.2s22.923 51.2 51.2 51.2h921.6c28.277 0 51.2-22.923 51.2-51.2s-22.923-51.2-51.2-51.2zM368.64 100.096c-55.808 0-111.36 21.248-153.856 63.488-40.96 40.96-63.488 95.744-63.488 153.856s22.528 112.896 63.488 153.856l66.048 66.048c19.968 19.968 52.48 19.968 72.448 0s19.968-52.48 0-72.448l-66.048-66.048c-21.504-21.504-33.536-50.432-33.536-81.408s12.032-59.904 33.536-81.408c44.8-45.056 118.016-44.8 162.816 0l68.864 68.864c19.968 19.968 52.48 19.968 72.448 0s19.968-52.48 0-72.448l-68.864-68.864c-42.496-42.496-98.048-63.744-153.856-63.744zM710.4 372.48c-13.056 0-26.112 5.12-36.096 15.104-19.968 19.968-19.968 52.48 0 72.448l62.72 62.72c21.504 21.504 33.536 50.432 33.536 81.408s-12.032 59.904-33.536 81.408c-44.8 44.8-118.016 45.056-162.816 0l-62.72-62.72c-19.968-19.968-52.48-19.968-72.448 0s-19.968 52.48 0 72.448l62.72 62.72c84.992 84.736 222.976 84.736 307.712 0 40.96-40.96 63.488-95.744 63.488-153.856s-22.528-112.896-63.488-153.856l-62.72-62.72c-9.984-9.984-23.040-15.104-36.096-15.104zM387.572 403.831l176.737 176.613c20.002 19.988 52.42 19.977 72.408-0.025s19.977-52.42-0.025-72.408l-176.737-176.613c-20.002-19.988-52.42-19.977-72.408 0.025s-19.977 52.42 0.025 72.408z" />
<glyph unicode="&#xe901;" glyph-name="add" d="M51.2 499.2h921.6c28.277 0 51.2-22.923 51.2-51.2s-22.923-51.2-51.2-51.2h-921.6c-28.277 0-51.2 22.923-51.2 51.2s22.923 51.2 51.2 51.2zM460.8-12.8v921.6c0 28.277 22.923 51.2 51.2 51.2s51.2-22.923 51.2-51.2v-921.6c0-28.277-22.923-51.2-51.2-51.2s-51.2 22.923-51.2 51.2z" />
<glyph unicode="&#xe902;" glyph-name="adiust" d="M51.2 755.2h136.96c20.992-59.648 77.824-102.4 144.64-102.4s123.648 42.752 144.64 102.4h495.36c28.16 0 51.2 23.040 51.2 51.2s-23.040 51.2-51.2 51.2h-495.36c-20.992 59.648-77.824 102.4-144.64 102.4s-123.648-42.752-144.64-102.4h-136.96c-28.16 0-51.2-23.040-51.2-51.2s23.040-51.2 51.2-51.2zM972.8 499.2h-136.96c-20.992 59.648-77.824 102.4-144.64 102.4s-123.648-42.752-144.64-102.4h-495.36c-28.16 0-51.2-23.040-51.2-51.2s23.040-51.2 51.2-51.2h495.36c20.992-59.648 77.824-102.4 144.64-102.4s123.648 42.752 144.64 102.4h136.96c28.16 0 51.2 23.040 51.2 51.2s-23.040 51.2-51.2 51.2zM972.8 140.8h-495.36c-20.992 59.648-77.824 102.4-144.64 102.4s-123.648-42.752-144.64-102.4h-136.96c-28.16 0-51.2-23.040-51.2-51.2s23.040-51.2 51.2-51.2h136.96c20.992-59.648 77.824-102.4 144.64-102.4s123.648 42.752 144.64 102.4h495.36c28.16 0 51.2 23.040 51.2 51.2s-23.040 51.2-51.2 51.2z" />
<glyph unicode="&#xe903;" glyph-name="adjust" d="M874.165 810.165c-199.78 199.78-524.806 199.78-724.33 0-199.78-199.78-199.78-524.806 0-724.33 199.78-199.78 524.806-199.78 724.33 0 199.78 199.78 199.78 524.806 0 724.33zM222.319 158.319l579.362 579.362c159.824-159.824 159.824-419.794 0-579.618s-419.794-159.824-579.618 0z" />
<glyph unicode="&#xe904;" glyph-name="adown" d="M548.096 193.28l449.024 449.024c19.968 19.968 19.968 52.48 0 72.448s-52.48 19.968-72.448 0l-418.56-418.56-418.816 418.56c-19.968 19.968-52.48 19.968-72.448 0s-19.968-52.48 0-72.448l449.024-449.024c11.52-11.52 27.136-16.128 42.24-14.336 15.104-1.792 30.72 2.816 42.24 14.336z" />
<glyph unicode="&#xe905;" glyph-name="align-bottom" d="M0 102.4c0 28.277 22.923 51.2 51.2 51.2h921.6c28.277 0 51.2-22.923 51.2-51.2s-22.923-51.2-51.2-51.2h-921.6c-28.277 0-51.2 22.923-51.2 51.2zM256 307.2v307.2c0 14.138 11.462 25.6 25.6 25.6h153.6c14.138 0 25.6-11.462 25.6-25.6v-307.2c0-14.138-11.462-25.6-25.6-25.6h-153.6c-14.138 0-25.6 11.462-25.6 25.6zM563.2 307.2v512c0 14.138 11.462 25.6 25.6 25.6h153.6c14.138 0 25.6-11.462 25.6-25.6v-512c0-14.138-11.462-25.6-25.6-25.6h-153.6c-14.138 0-25.6 11.462-25.6 25.6z" />
<glyph unicode="&#xe906;" glyph-name="align-horizontal-center" horiz-adv-x="563" d="M281.6-64c-28.277 0-51.2 22.923-51.2 51.2v921.6c0 28.277 22.923 51.2 51.2 51.2s51.2-22.923 51.2-51.2v-921.6c0-28.277-22.923-51.2-51.2-51.2zM435.2 499.2h-307.2c-14.138 0-25.6 11.462-25.6 25.6v153.6c0 14.138 11.462 25.6 25.6 25.6h307.2c14.138 0 25.6-11.462 25.6-25.6v-153.6c0-14.138-11.462-25.6-25.6-25.6zM537.6 192h-512c-14.138 0-25.6 11.462-25.6 25.6v153.6c0 14.138 11.462 25.6 25.6 25.6h512c14.138 0 25.6-11.462 25.6-25.6v-153.6c0-14.138-11.462-25.6-25.6-25.6z" />
<glyph unicode="&#xe907;" glyph-name="align-left" horiz-adv-x="794" d="M51.2 960c28.277 0 51.2-22.923 51.2-51.2v-921.6c0-28.277-22.923-51.2-51.2-51.2s-51.2 22.923-51.2 51.2v921.6c0 28.277 22.923 51.2 51.2 51.2zM256 704h307.2c14.138 0 25.6-11.462 25.6-25.6v-153.6c0-14.138-11.462-25.6-25.6-25.6h-307.2c-14.138 0-25.6 11.462-25.6 25.6v153.6c0 14.138 11.462 25.6 25.6 25.6zM256 396.8h512c14.138 0 25.6-11.462 25.6-25.6v-153.6c0-14.138-11.462-25.6-25.6-25.6h-512c-14.138 0-25.6 11.462-25.6 25.6v153.6c0 14.138 11.462 25.6 25.6 25.6z" />
<glyph unicode="&#xe908;" glyph-name="align-right" horiz-adv-x="794" d="M742.4-64c-28.277 0-51.2 22.923-51.2 51.2v921.6c0 28.277 22.923 51.2 51.2 51.2s51.2-22.923 51.2-51.2v-921.6c0-28.277-22.923-51.2-51.2-51.2zM537.6 499.2h-307.2c-14.138 0-25.6 11.462-25.6 25.6v153.6c0 14.138 11.462 25.6 25.6 25.6h307.2c14.138 0 25.6-11.462 25.6-25.6v-153.6c0-14.138-11.462-25.6-25.6-25.6zM537.6 192h-512c-14.138 0-25.6 11.462-25.6 25.6v153.6c0 14.138 11.462 25.6 25.6 25.6h512c14.138 0 25.6-11.462 25.6-25.6v-153.6c0-14.138-11.462-25.6-25.6-25.6z" />
<glyph unicode="&#xe909;" glyph-name="align-top" d="M1024 793.6c0-28.277-22.923-51.2-51.2-51.2h-921.6c-28.277 0-51.2 22.923-51.2 51.2s22.923 51.2 51.2 51.2h921.6c28.277 0 51.2-22.923 51.2-51.2zM768 588.8v-307.2c0-14.138-11.462-25.6-25.6-25.6h-153.6c-14.138 0-25.6 11.462-25.6 25.6v307.2c0 14.138 11.462 25.6 25.6 25.6h153.6c14.138 0 25.6-11.462 25.6-25.6zM460.8 588.8v-512c0-14.138-11.462-25.6-25.6-25.6h-153.6c-14.138 0-25.6 11.462-25.6 25.6v512c0 14.138 11.462 25.6 25.6 25.6h153.6c14.138 0 25.6-11.462 25.6-25.6z" />
<glyph unicode="&#xe90a;" glyph-name="align-vertical-center" d="M0 448c0 28.277 22.923 51.2 51.2 51.2h921.6c28.277 0 51.2-22.923 51.2-51.2s-22.923-51.2-51.2-51.2h-921.6c-28.277 0-51.2 22.923-51.2 51.2zM256 294.4v307.2c0 14.138 11.462 25.6 25.6 25.6h153.6c14.138 0 25.6-11.462 25.6-25.6v-307.2c0-14.138-11.462-25.6-25.6-25.6h-153.6c-14.138 0-25.6 11.462-25.6 25.6zM563.2 192v512c0 14.138 11.462 25.6 25.6 25.6h153.6c14.138 0 25.6-11.462 25.6-25.6v-512c0-14.138-11.462-25.6-25.6-25.6h-153.6c-14.138 0-25.6 11.462-25.6 25.6z" />
<glyph unicode="&#xe90b;" glyph-name="alipay" d="M1024.263 259.023v504.115c0 108.55-88.312 196.862-197.125 196.862h-630.275c-108.813 0-196.862-88.312-196.862-196.862v-630.275c0-108.813 88.049-196.862 196.862-196.862h630.275c96.723 0 177.413 69.914 193.971 162.168-52.304 22.604-278.604 120.378-396.353 176.624-89.626-108.813-183.721-173.996-325.388-173.996s-236.287 87.261-224.986 193.971c7.359 70.177 55.458 184.772 264.411 165.060 110.127-10.251 160.329-30.752 250.218-60.452 23.129 42.579 42.579 89.363 57.035 139.302h-397.93s0 39.425 0 39.425h196.862v70.702h-240.23v43.368h240.23v102.242s2.103 16.033 19.975 16.033h98.563v-118.275h256v-43.368h-256v-70.702h208.953c-19.187-78.062-48.361-150.078-84.895-212.632 60.715-22.078 336.69-106.448 336.69-106.448v0zM283.598 168.345c-149.552 0-173.207 94.357-165.322 134.045 7.885 39.425 51.253 90.678 134.308 90.678 95.671 0 181.355-24.444 284.123-74.382-72.279-94.094-160.854-150.078-253.109-150.078v0z" />
<glyph unicode="&#xe90c;" glyph-name="android" horiz-adv-x="855" d="M534.573-64c34.116 0 64.128 29.756 64.128 64.128v149.804h42.838c25.651 0 42.838 17.186 42.838 42.838v427.351h-513.283v-427.607c0-25.651 17.186-42.838 42.838-42.838h42.838v-149.804c0-34.116 29.756-64.128 64.128-64.128s64.128 29.756 64.128 64.128v149.804h85.675v-149.804c0-34.116 29.756-64.128 64.128-64.128zM791.086 192.513c34.116 0 64.128 29.756 64.128 64.128v299.351c0 34.116-29.756 64.128-64.128 64.128s-64.128-30.012-64.128-64.128v-299.351c0-34.116 29.756-64.128 64.128-64.128zM64.128 192.513c34.116 0 64.128 29.756 64.128 64.128v299.351c0 34.116-29.756 64.128-64.128 64.128s-64.128-30.012-64.128-64.128v-299.351c0-34.116 29.756-64.128 64.128-64.128zM632.818 953.587c-8.465 8.721-21.291 8.721-29.756 0l-60.024-59.768c-34.116 16.93-72.080 25.651-114.661 25.651 0 0-0.513 0-0.513 0v0s-0.513 0-0.513 0c-42.581 0-80.545-8.721-114.661-25.651l-2.565 2.565-57.972 57.202c-8.465 8.721-21.291 8.721-29.756 0-8.465-8.465-8.465-21.291 0-29.756l55.407-55.663c-17.956-12.056-34.116-26.677-48.224-43.351-33.86-40.016-55.407-92.088-58.228-148.521 0-0.513 0-1.283 0-1.796 0-3.848-0.257-7.695-0.257-11.543h513.283c0 3.848 0 7.695-0.257 11.543 0 0.513 0 1.283 0 1.796-3.078 56.433-24.625 108.505-58.228 148.521-14.108 16.673-30.269 31.295-48.224 43.351l55.663 55.663c8.465 8.465 8.465 21.291 0 29.756zM320.641 737.603c-17.699 0-32.064 14.365-32.064 32.064s14.365 32.064 32.064 32.064 32.064-14.365 32.064-32.064-14.365-32.064-32.064-32.064zM534.573 737.603c-17.699 0-32.064 14.365-32.064 32.064s14.365 32.064 32.064 32.064 32.064-14.365 32.064-32.064-14.365-32.064-32.064-32.064z" />
<glyph unicode="&#xe90d;" glyph-name="anext" horiz-adv-x="557" d="M542.697 490.613l-454.363 454.363c-20.205 19.946-53.104 19.946-73.309 0-19.946-20.205-19.946-53.104 0-73.309l423.537-423.537-423.537-423.796c-20.205-20.205-20.205-53.104 0-73.309s53.104-20.205 73.309 0l454.363 454.363c11.657 11.657 16.32 27.459 14.506 42.742 1.813 15.284-2.849 31.085-14.506 42.742z" />
<glyph unicode="&#xe90e;" glyph-name="apple" d="M793.731 411.766c-1.313 130.757 106.601 193.247 111.327 196.398-60.652 88.747-154.913 100.825-188.784 102.137-80.345 8.139-156.751-47.262-197.448-47.262s-103.713 46.211-170.142 44.898c-87.696-1.313-168.304-50.937-213.465-129.444-91.11-157.801-23.368-391.746 65.378-519.877 43.323-62.753 95.048-133.12 162.79-130.494 65.378 2.626 90.059 42.273 169.091 42.273s101.087-42.273 170.404-40.96c70.367 1.313 114.741 63.803 157.801 126.818 49.887 72.73 70.367 143.097 71.417 146.773-1.575 0.788-137.058 52.513-138.371 208.738zM663.762 795.372c35.971 43.586 60.39 104.238 53.563 164.89-51.988-2.101-114.741-34.658-152.025-78.244-33.346-38.597-62.753-100.299-54.876-159.639 58.027-4.464 117.104 29.407 153.075 72.993z" />
<glyph unicode="&#xe90f;" glyph-name="aprev" horiz-adv-x="557" d="M15.025 490.613l454.104 454.363c20.205 20.205 53.104 20.205 73.309 0s20.205-53.104 0-73.309l-423.537-423.796 423.537-423.537c20.205-20.205 20.205-53.104 0-73.309s-53.104-20.205-73.309 0l-454.104 454.363c-11.657 11.657-16.32 27.459-14.506 42.742-1.813 15.284 2.849 31.085 14.506 42.742z" />
<glyph unicode="&#xe910;" glyph-name="atop" d="M548.096 714.752l449.024-449.024c19.968-19.968 19.968-52.48 0-72.448s-52.48-19.968-72.448 0l-418.56 418.816-418.816-418.56c-19.968-19.968-52.48-19.968-72.448 0s-19.968 52.48 0 72.448l449.024 448.768c11.52 11.52 27.136 16.128 42.24 14.336 15.104 1.792 30.72-2.816 42.24-14.336z" />
<glyph unicode="&#xe911;" glyph-name="background" d="M0-12.8v921.6c0 28.277 22.923 51.2 51.2 51.2s51.2-22.923 51.2-51.2v-921.6c0-28.277-22.923-51.2-51.2-51.2s-51.2 22.923-51.2 51.2zM921.6-12.8v921.6c0 28.277 22.923 51.2 51.2 51.2s51.2-22.923 51.2-51.2v-921.6c0-28.277-22.923-51.2-51.2-51.2s-51.2 22.923-51.2 51.2zM972.8 857.6h-921.6c-28.277 0-51.2 22.923-51.2 51.2s22.923 51.2 51.2 51.2h921.6c28.277 0 51.2-22.923 51.2-51.2s-22.923-51.2-51.2-51.2zM926.009-38.282l-904.011 904.011c-19.995 19.995-19.995 52.413 0 72.408s52.413 19.995 72.408 0l904.011-904.011c19.995-19.995 19.995-52.413 0-72.408s-52.413-19.995-72.408 0zM925.977 268.825l-588.313 588.313c-19.995 19.995-19.995 52.413 0 72.408s52.413 19.995 72.408 0l588.313-588.313c19.995-19.995 19.995-52.413 0-72.408s-52.413-19.995-72.408 0zM607.959-27.501l-582.339 582.339c-19.995 19.995-19.995 52.413 0 72.408s52.413 19.995 72.408 0l582.339-582.339c19.995-19.995 19.995-52.413 0-72.408s-52.413-19.995-72.408 0zM925.078 600.698l-260.849 260.849c-19.995 19.995-19.995 52.413 0 72.408s52.413 19.995 72.408 0l260.849-260.849c19.995-19.995 19.995-52.413 0-72.408s-52.413-19.995-72.408 0zM291.454-32.931l-267.366 267.366c-19.995 19.995-19.995 52.413 0 72.408s52.413 19.995 72.408 0l267.366-267.366c19.995-19.995 19.995-52.413 0-72.408s-52.413-19.995-72.408 0zM972.8-64h-921.6c-28.277 0-51.2 22.923-51.2 51.2s22.923 51.2 51.2 51.2h921.6c28.277 0 51.2-22.923 51.2-51.2s-22.923-51.2-51.2-51.2z" />
<glyph unicode="&#xe912;" glyph-name="big" d="M1009.010 24.133l-180.402 180.402c63.58 79.604 101.831 180.402 101.831 290.245 0 256.905-208.315 465.22-465.22 465.22s-465.22-208.315-465.22-465.22 208.315-465.22 465.22-465.22c109.844 0 210.641 38.251 290.245 101.831l180.402-180.402c20.16-20.16 52.983-20.16 73.143 0s20.16 52.983 0 73.143zM465.22 132.943c-199.786 0-361.837 162.051-361.837 361.837s162.051 361.837 361.837 361.837 361.837-162.051 361.837-361.837-162.051-361.837-361.837-361.837zM620.293 443.089h-313.248c-28.548 0-51.691 23.143-51.691 51.691s23.143 51.691 51.691 51.691h313.248c28.548 0 51.691-23.143 51.691-51.691s-23.143-51.691-51.691-51.691zM515.36 651.404v-313.248c0-28.548-23.143-51.691-51.691-51.691s-51.691 23.143-51.691 51.691v313.248c0 28.548 23.143 51.691 51.691 51.691s51.691-23.143 51.691-51.691z" />
<glyph unicode="&#xe913;" glyph-name="bringForward" horiz-adv-x="665" d="M665.485-12.966c0-28.185-22.849-51.034-51.034-51.034h-563.417c-28.185 0-51.034 22.849-51.034 51.034s22.849 51.034 51.034 51.034h563.417c28.185 0 51.034-22.849 51.034-51.034zM106.725 751.954l193.063 193.063c19.93 19.93 52.243 19.93 72.173 0s19.93-52.243 0-72.173l-193.063-193.063c-19.93-19.93-52.243-19.93-72.173 0s-19.93 52.243 0 72.173zM504.125 679.806l-193.063 193.063c-19.93 19.93-19.93 52.243 0 72.173s52.243 19.93 72.173 0l193.063-193.063c19.93-19.93 19.93-52.243 0-72.173s-52.243-19.93-72.173 0zM290.384 293.239v612.41c0 28.185 22.849 51.034 51.034 51.034s51.034-22.849 51.034-51.034v-612.41c0-28.185-22.849-51.034-51.034-51.034s-51.034 22.849-51.034 51.034z" />
<glyph unicode="&#xe914;" glyph-name="bringToFront" d="M1024 908.8c0-28.277-22.923-51.2-51.2-51.2h-921.6c-28.277 0-51.2 22.923-51.2 51.2s22.923 51.2 51.2 51.2h921.6c28.277 0 51.2-22.923 51.2-51.2zM836.864-12.8c0-28.277-22.923-51.2-51.2-51.2h-565.248c-28.277 0-51.2 22.923-51.2 51.2s22.923 51.2 51.2 51.2h565.248c28.277 0 51.2-22.923 51.2-51.2zM276.475 473.128l193.691 193.691c19.995 19.995 52.413 19.995 72.408 0s19.995-52.413 0-72.408l-193.691-193.691c-19.995-19.995-52.413-19.995-72.408 0s-19.995 52.413 0 72.408zM675.112 400.81l-193.691 193.691c-19.995 19.995-19.995 52.413 0 72.408s52.413 19.995 72.408 0l193.691-193.691c19.995-19.995 19.995-52.413 0-72.408s-52.413-19.995-72.408 0zM460.8 261.632v365.568c0 28.277 22.923 51.2 51.2 51.2s51.2-22.923 51.2-51.2v-365.568c0-28.277-22.923-51.2-51.2-51.2s-51.2 22.923-51.2 51.2z" />
<glyph unicode="&#xe915;" glyph-name="caimo" horiz-adv-x="985" d="M0 427.324v0l258.455 532.676h98.471c53.759 0 89.167-56.343 65.648-104.674l-113.979-234.677c-57.377-118.373-177.3-193.325-308.596-193.325zM305.753 212.030v0l258.455 532.418h109.068c48.848 0 80.897-51.174 59.703-95.112l-118.373-243.982c-57.377-118.114-177.3-193.325-308.596-193.325zM555.42-64v0l258.455 532.676h99.247c53.5 0 88.392-55.826 65.131-104.157l-114.237-235.453c-57.377-118.114-177.042-193.325-308.596-193.325z" />
<glyph unicode="&#xe916;" glyph-name="camera" d="M921.6-12.8v793.6c0 28.277 22.923 51.2 51.2 51.2s51.2-22.923 51.2-51.2v-793.6c0-28.277-22.923-51.2-51.2-51.2s-51.2 22.923-51.2 51.2zM0-12.8v793.6c0 28.277 22.923 51.2 51.2 51.2s51.2-22.923 51.2-51.2v-793.6c0-28.277-22.923-51.2-51.2-51.2s-51.2 22.923-51.2 51.2zM742.4 832h230.4c28.277 0 51.2-22.923 51.2-51.2s-22.923-51.2-51.2-51.2h-230.4c-28.277 0-51.2 22.923-51.2 51.2s22.923 51.2 51.2 51.2zM51.2 832h128c28.277 0 51.2-22.923 51.2-51.2s-22.923-51.2-51.2-51.2h-128c-28.277 0-51.2 22.923-51.2 51.2s22.923 51.2 51.2 51.2zM636.833 944.718l123.998-123.998c19.995-19.995 19.995-52.413 0-72.408s-52.413-19.995-72.408 0l-123.998 123.998c-19.995 19.995-19.995 52.413 0 72.408s52.413 19.995 72.408 0zM351.405 872.382l-123.998-123.998c-19.995-19.995-52.413-19.995-72.408 0s-19.995 52.413 0 72.408l123.998 123.998c19.995 19.995 52.413 19.995 72.408 0s19.995-52.413 0-72.408zM332.8 960h256c28.277 0 51.2-22.923 51.2-51.2s-22.923-51.2-51.2-51.2h-256c-28.277 0-51.2 22.923-51.2 51.2s22.923 51.2 51.2 51.2zM51.2 38.4h921.6c28.277 0 51.2-22.923 51.2-51.2s-22.923-51.2-51.2-51.2h-921.6c-28.277 0-51.2 22.923-51.2 51.2s22.923 51.2 51.2 51.2zM204.8 192h614.4c28.277 0 51.2-22.923 51.2-51.2s-22.923-51.2-51.2-51.2h-614.4c-28.277 0-51.2 22.923-51.2 51.2s22.923 51.2 51.2 51.2zM294.144 332.544c84.992-84.992 222.72-84.992 307.712 0s84.992 222.72 0 307.712-222.72 84.992-307.712 0-84.992-222.72 0-307.712zM366.592 567.808c45.056 45.056 118.016 45.056 162.816 0s45.056-118.016 0-162.816c-45.056-45.056-118.016-45.056-162.816 0-45.056 45.056-45.056 118.016 0 162.816zM868.352 596.992c0-35.063-28.425-63.488-63.488-63.488s-63.488 28.425-63.488 63.488c0 35.063 28.425 63.488 63.488 63.488s63.488-28.425 63.488-63.488z" />
<glyph unicode="&#xe917;" glyph-name="change" d="M737.237 290.532l193.691 193.691c19.995 19.995 52.413 19.995 72.408 0s19.995-52.413 0-72.408l-193.691-193.691c-19.995-19.995-52.413-19.995-72.408 0s-19.995 52.413 0 72.408zM809.875 689.114l193.691-193.691c19.995-19.995 19.995-52.413 0-72.408s-52.413-19.995-72.408 0l-193.691 193.691c-19.995 19.995-19.995 52.413 0 72.408s52.413 19.995 72.408 0zM349.44 504.832h614.4c28.277 0 51.2-22.923 51.2-51.2s-22.923-51.2-51.2-51.2h-614.4c-28.277 0-51.2 22.923-51.2 51.2s22.923 51.2 51.2 51.2zM208.529 218.209l-193.691 193.691c-19.995 19.995-19.995 52.413 0 72.408s52.413 19.995 72.408 0l193.691-193.691c19.995-19.995 19.995-52.413 0-72.408s-52.413-19.995-72.408 0zM281.167 616.673l-193.691-193.691c-19.995-19.995-52.413-19.995-72.408 0s-19.995 52.413 0 72.408l193.691 193.691c19.995 19.995 52.413 19.995 72.408 0s19.995-52.413 0-72.408zM668.928 402.432h-614.4c-28.277 0-51.2 22.923-51.2 51.2s22.923 51.2 51.2 51.2h614.4c28.277 0 51.2-22.923 51.2-51.2s-22.923-51.2-51.2-51.2z" />
<glyph unicode="&#xe918;" glyph-name="check" horiz-adv-x="1016" d="M988.264 474.095l-909.594 479.221c-4.113 2.057-8.484 3.599-12.855 4.371-10.798 3.342-22.624 3.085-33.679-1.285-26.223-10.541-39.078-40.621-28.28-66.844l345.275-921.42c10.541-26.223 40.621-39.078 66.844-28.537 18.768 7.456 30.337 25.195 31.879 43.963l79.442 417.518 433.715-29.823c25.195-1.028 47.048 16.711 52.19 40.878 7.713 23.395-2.057 49.876-24.681 61.702zM491.561 506.746c-24.167 1.028-45.505-15.426-51.676-37.793-4.371-6.17-7.713-13.369-8.998-21.339l-51.161-269.176-233.183 622.935 591.056-311.596-246.038 16.968z" />
<glyph unicode="&#xe919;" glyph-name="circle" d="M512-64c-282.368 0-512 229.632-512 512s229.632 512 512 512 512-229.632 512-512-229.632-512-512-512zM512 857.6c-225.792 0-409.6-183.808-409.6-409.6s183.808-409.6 409.6-409.6 409.6 183.808 409.6 409.6-183.808 409.6-409.6 409.6z" />
<glyph unicode="&#xe91a;" glyph-name="close" d="M933.702-48.706l-918.483 918.483c-20.608 20.608-20.608 54.020 0 74.628s54.020 20.608 74.628 0l918.483-918.483c20.608-20.608 20.608-54.020 0-74.628s-54.020-20.608-74.628 0zM1008.706 869.966l-918.483-918.483c-20.608-20.608-54.020-20.608-74.628 0s-20.608 54.020 0 74.628l918.483 918.483c20.608 20.608 54.020 20.608 74.628 0s20.608-54.020 0-74.628z" />
<glyph unicode="&#xe91b;" glyph-name="cloud-download" d="M768 704c0 141.056-114.944 256-256 256s-256-114.944-256-256c-141.056 0-256-114.944-256-256s114.944-256 256-256c28.16 0 51.2 23.040 51.2 51.2s-23.040 51.2-51.2 51.2c-84.736 0-153.6 68.864-153.6 153.6s68.864 153.6 153.6 153.6c15.36 0 30.464-2.304 45.312-6.912 0 0 31.488-18.688 57.088 6.912s6.912 57.088 6.912 57.088c-4.608 14.592-6.912 29.952-6.912 45.312 0 84.736 68.864 153.6 153.6 153.6s153.6-68.864 153.6-153.6c0-15.36-2.304-30.464-6.912-45.312 0 0-18.688-31.488 6.912-57.088s57.088-6.912 57.088-6.912c14.592 4.608 29.952 6.912 45.312 6.912 84.736 0 153.6-68.864 153.6-153.6s-68.864-153.6-153.6-153.6c-28.16 0-51.2-23.040-51.2-51.2s23.040-51.2 51.2-51.2c141.056 0 256 114.944 256 256s-114.944 256-256 256zM512 603.136c28.16 0 51.2-23.040 51.2-51.2v-216.576l72.448 72.448c19.968 19.968 52.48 19.968 72.448 0v0c19.968-19.968 19.968-52.48 0-72.448l-154.368-154.368c-11.264-11.264-26.88-16.128-41.728-14.336-14.848-1.536-30.464 3.072-41.728 14.336l-154.112 154.112c-19.968 19.968-19.968 52.48 0 72.448s52.48 19.968 72.448 0l72.192-72.192v216.576c0 28.16 23.040 51.2 51.2 51.2zM819.2 38.4h-614.4c-28.16 0-51.2-23.040-51.2-51.2s23.040-51.2 51.2-51.2h614.4c28.16 0 51.2 23.040 51.2 51.2v0c0 28.16-23.040 51.2-51.2 51.2z" />
<glyph unicode="&#xe91c;" glyph-name="cloud-upload" d="M768 704c0 141.056-114.944 256-256 256s-256-114.944-256-256c-141.056 0-256-114.944-256-256s114.944-256 256-256c28.16 0 51.2 23.040 51.2 51.2s-23.040 51.2-51.2 51.2c-84.736 0-153.6 68.864-153.6 153.6s68.864 153.6 153.6 153.6c15.36 0 30.464-2.304 45.312-6.912 0 0 31.488-18.688 57.088 6.912s6.912 57.088 6.912 57.088c-4.608 14.592-6.912 29.952-6.912 45.312 0 84.736 68.864 153.6 153.6 153.6s153.6-68.864 153.6-153.6c0-15.36-2.304-30.464-6.912-45.312 0 0-18.688-31.488 6.912-57.088s57.088-6.912 57.088-6.912c14.592 4.608 29.952 6.912 45.312 6.912 84.736 0 153.6-68.864 153.6-153.6s-68.864-153.6-153.6-153.6c-28.16 0-51.2-23.040-51.2-51.2s23.040-51.2 51.2-51.2c141.056 0 256 114.944 256 256s-114.944 256-256 256zM512 166.4c28.16 0 51.2 23.040 51.2 51.2v216.576l72.448-72.448c19.968-19.968 52.48-19.968 72.448 0v0c19.968 19.968 19.968 52.48 0 72.448l-154.368 154.368c-11.264 11.264-26.88 16.128-41.728 14.336-14.848 1.536-30.464-3.072-41.728-14.336l-154.112-154.112c-19.968-19.968-19.968-52.48 0-72.448s52.48-19.968 72.448 0l72.192 72.192v-216.576c0-28.16 23.040-51.2 51.2-51.2zM819.2 38.4h-614.4c-28.16 0-51.2-23.040-51.2-51.2s23.040-51.2 51.2-51.2h614.4c28.16 0 51.2 23.040 51.2 51.2v0c0 28.16-23.040 51.2-51.2 51.2z" />
<glyph unicode="&#xe91d;" glyph-name="color" d="M512-64c-282.368 0-512 229.632-512 512s229.632 512 512 512c63.232 0 124.928-11.52 183.552-33.792 26.368-10.24 39.68-39.68 29.44-66.048s-39.68-39.68-66.048-29.44c-46.848 17.92-96.256 27.136-146.688 27.136-225.792 0-409.6-183.808-409.6-409.6s183.808-409.6 409.6-409.6 409.6 183.808 409.6 409.6c0 21.248-1.536 42.496-4.864 62.976-4.352 27.904 14.848 54.016 42.752 58.368s54.016-14.848 58.368-42.752c4.096-25.856 6.144-52.224 6.144-78.592 0-282.368-229.632-512-512-512zM543.712 500.954l354.074 354.074c19.995 19.995 52.413 19.995 72.408 0s19.995-52.413 0-72.408l-354.074-354.074c-19.995-19.995-52.413-19.995-72.408 0s-19.995 52.413 0 72.408zM614.4 742.4c0-35.346-28.654-64-64-64s-64 28.654-64 64c0 35.346 28.654 64 64 64s64-28.654 64-64zM435.2 678.4c0-42.415-34.385-76.8-76.8-76.8s-76.8 34.385-76.8 76.8c0 42.415 34.385 76.8 76.8 76.8s76.8-34.385 76.8-76.8zM281.6 550.4c0-28.277-22.923-51.2-51.2-51.2s-51.2 22.923-51.2 51.2c0 28.277 22.923 51.2 51.2 51.2s51.2-22.923 51.2-51.2zM256 371.2c0-28.277-22.923-51.2-51.2-51.2s-51.2 22.923-51.2 51.2c0 28.277 22.923 51.2 51.2 51.2s51.2-22.923 51.2-51.2zM819.2 320c0-28.277-22.923-51.2-51.2-51.2s-51.2 22.923-51.2 51.2c0 28.277 22.923 51.2 51.2 51.2s51.2-22.923 51.2-51.2zM638.72 181.504c0-37.184-30.144-67.328-67.328-67.328s-67.328 30.144-67.328 67.328c0 37.184 30.144 67.328 67.328 67.328s67.328-30.144 67.328-67.328zM256 281.344c134.912-11.264 86.528 132.096 211.456 133.376l54.016-45.056c13.568-162.816-185.856-199.168-265.472-88.32z" />
<glyph unicode="&#xe91e;" glyph-name="color-card" horiz-adv-x="1023" d="M414.234-12.825c0-28.122-22.798-50.92-50.92-50.92h-311.63c-28.122 0-50.92 22.798-50.92 50.92s22.798 50.92 50.92 50.92h311.63c28.122 0 50.92-22.798 50.92-50.92zM414.234 905.261c0-28.122-22.798-50.92-50.92-50.92h-311.63c-28.122 0-50.92 22.798-50.92 50.92s22.798 50.92 50.92 50.92h311.63c28.122 0 50.92-22.798 50.92-50.92zM51.684 956.181c28.122 0 50.92-22.798 50.92-50.92v-918.341c0-28.122-22.798-50.92-50.92-50.92s-50.92 22.798-50.92 50.92v918.341c0 28.122 22.798 50.92 50.92 50.92zM363.314 956.181c28.122 0 50.92-22.798 50.92-50.92v-918.341c0-28.122-22.798-50.92-50.92-50.92s-50.92 22.798-50.92 50.92v918.341c0 28.122 22.798 50.92 50.92 50.92zM969.261 351.252c28.122 0 50.92-22.798 50.92-50.92v-311.63c0-28.122-22.798-50.92-50.92-50.92s-50.92 22.798-50.92 50.92v311.63c0 28.122 22.798 50.92 50.92 50.92zM50.92 351.252c28.122 0 50.92-22.798 50.92-50.92v-311.63c0-28.122-22.798-50.92-50.92-50.92s-50.92 22.798-50.92 50.92v311.63c0 28.122 22.798 50.92 50.92 50.92zM0-11.298c0 28.122 22.798 50.92 50.92 50.92h918.341c28.122 0 50.92-22.798 50.92-50.92s-22.798-50.92-50.92-50.92h-918.341c-28.122 0-50.92 22.798-50.92 50.92zM0 300.078c0 28.122 22.798 50.92 50.92 50.92h918.341c28.122 0 50.92-22.798 50.92-50.92s-22.798-50.92-50.92-50.92h-918.341c-28.122 0-50.92 22.798-50.92 50.92zM716.11 945.191c19.885 19.885 52.126 19.885 72.012 0l220.356-220.356c19.885-19.885 19.885-52.126 0-72.012s-52.126-19.885-72.012 0l-220.356 220.356c-19.885 19.885-19.885 52.126 0 72.012zM563.061 279.663c-19.885 19.885-19.885 52.126 0 72.012l373.020 373.020c19.885 19.885 52.126 19.885 72.012 0s19.885-52.126 0-72.012l-373.020-373.020c-19.885-19.885-52.126-19.885-72.012 0zM342.833 500.072c-19.885 19.885-19.885 52.126 0 72.012l373.020 373.020c19.885 19.885 52.126 19.885 72.012 0s19.885-52.126 0-72.012l-373.020-373.020c-19.885-19.885-52.126-19.885-72.012 0z" />
<glyph unicode="&#xe91f;" glyph-name="color-gradient" d="M51.877 960c28.228 0 51.111-22.883 51.111-51.111v-921.779c0-28.228-22.883-51.111-51.111-51.111s-51.111 22.883-51.111 51.111v921.779c0 28.228 22.883 51.111 51.111 51.111zM409.651 960c28.228 0 51.111-22.883 51.111-51.111v-921.779c0-28.228-22.883-51.111-51.111-51.111s-51.111 22.883-51.111 51.111v921.779c0 28.228 22.883 51.111 51.111 51.111zM626.104 960c28.228 0 51.111-22.883 51.111-51.111v-921.779c0-28.228-22.883-51.111-51.111-51.111s-51.111 22.883-51.111 51.111v921.779c0 28.228 22.883 51.111 51.111 51.111zM818.536 960c28.228 0 51.111-22.883 51.111-51.111v-921.779c0-28.228-22.883-51.111-51.111-51.111s-51.111 22.883-51.111 51.111v921.779c0 28.228 22.883 51.111 51.111 51.111zM0 908.889c0 28.228 22.883 51.111 51.111 51.111h921.779c28.228 0 51.111-22.883 51.111-51.111s-22.883-51.111-51.111-51.111h-921.779c-28.228 0-51.111 22.883-51.111 51.111zM0-11.101c0 28.228 22.883 51.111 51.111 51.111h921.779c28.228 0 51.111-22.883 51.111-51.111s-22.883-51.111-51.111-51.111h-921.779c-28.228 0-51.111 22.883-51.111 51.111zM971.867 960c28.228 0 51.111-22.883 51.111-51.111v-921.779c0-28.228-22.883-51.111-51.111-51.111s-51.111 22.883-51.111 51.111v921.779c0 28.228 22.883 51.111 51.111 51.111z" />
<glyph unicode="&#xe920;" glyph-name="computer" d="M921.6 960h-819.2c-56.32 0-102.4-46.080-102.4-102.4v-563.2c0-56.32 46.080-102.4 102.4-102.4h217.6v-153.6h-115.2c-28.16 0-51.2-23.040-51.2-51.2s23.040-51.2 51.2-51.2h614.4c28.16 0 51.2 23.040 51.2 51.2s-23.040 51.2-51.2 51.2h-115.2v153.6h217.6c56.32 0 102.4 46.080 102.4 102.4v563.2c0 56.32-46.080 102.4-102.4 102.4zM160 857.6h704c25.856 0 46.848-20.992 46.848-46.848v-337.152h-797.696v337.152c0 25.856 21.248 46.848 46.848 46.848zM601.6 38.4h-179.2v153.6h179.2v-153.6zM864 294.4h-704c-25.856 0-46.848 21.248-46.848 46.848v29.952h797.952v-29.952c0-25.856-21.248-46.848-46.848-46.848z" />
<glyph unicode="&#xe921;" glyph-name="copy" d="M204.8-12.8v716.8c0 28.277 22.923 51.2 51.2 51.2s51.2-22.923 51.2-51.2v-716.8c0-28.277-22.923-51.2-51.2-51.2s-51.2 22.923-51.2 51.2zM0 192v716.8c0 28.277 22.923 51.2 51.2 51.2s51.2-22.923 51.2-51.2v-716.8c0-28.277-22.923-51.2-51.2-51.2s-51.2 22.923-51.2 51.2zM972.8 652.8h-716.8c-28.277 0-51.2 22.923-51.2 51.2s22.923 51.2 51.2 51.2h716.8c28.277 0 51.2-22.923 51.2-51.2s-22.923-51.2-51.2-51.2zM768 857.6h-716.8c-28.277 0-51.2 22.923-51.2 51.2s22.923 51.2 51.2 51.2h716.8c28.277 0 51.2-22.923 51.2-51.2s-22.923-51.2-51.2-51.2zM972.8-64h-716.8c-28.277 0-51.2 22.923-51.2 51.2s22.923 51.2 51.2 51.2h716.8c28.277 0 51.2-22.923 51.2-51.2s-22.923-51.2-51.2-51.2zM921.6-12.8v716.8c0 28.277 22.923 51.2 51.2 51.2s51.2-22.923 51.2-51.2v-716.8c0-28.277-22.923-51.2-51.2-51.2s-51.2 22.923-51.2 51.2z" />
<glyph unicode="&#xe922;" glyph-name="copy-box" horiz-adv-x="1022" d="M979.501 958.965c-3.363 0.776-6.985 1.035-10.607 1.035h-621.955c-28.459 0-51.743-23.284-51.743-51.743v-246.816h-243.452c-28.459 0-51.743-23.284-51.743-51.743v-621.955s0 0 0 0 0 0 0 0c0-28.459 23.284-51.743 51.743-51.743h621.955s0.517 0 1.035 0c0 0 0 0 0 0 28.459 0 51.743 23.284 51.743 51.743v245.522h241.9c11.384 0 21.732 3.881 30.27 9.831 13.971 9.314 23.026 25.096 23.026 42.947v621.955c0 25.096-18.369 46.31-42.171 50.708zM622.989 39.487h-519.503v518.468h519.503v-518.468zM674.733 661.441s-0.259 0-0.517 0c0 0-0.259 0-0.517 0h-275.016v195.072h519.503v-519.761h-191.709v272.946c0 28.459-23.284 51.743-51.743 51.743z" />
<glyph unicode="&#xe923;" glyph-name="css" d="M51.2 960c28.277 0 51.2-22.923 51.2-51.2v-921.6c0-28.277-22.923-51.2-51.2-51.2s-51.2 22.923-51.2 51.2v921.6c0 28.277 22.923 51.2 51.2 51.2zM768 960c28.277 0 51.2-22.923 51.2-51.2v-435.2c0-28.277-22.923-51.2-51.2-51.2s-51.2 22.923-51.2 51.2v435.2c0 28.277 22.923 51.2 51.2 51.2zM972.8 524.8c28.277 0 51.2-22.923 51.2-51.2v-486.4c0-28.277-22.923-51.2-51.2-51.2s-51.2 22.923-51.2 51.2v486.4c0 28.277 22.923 51.2 51.2 51.2zM716.8 908.8c0 28.277 22.923 51.2 51.2 51.2h204.8c28.277 0 51.2-22.923 51.2-51.2s-22.923-51.2-51.2-51.2h-204.8c-28.277 0-51.2 22.923-51.2 51.2zM716.8 473.6c0 28.277 22.923 51.2 51.2 51.2h204.8c28.277 0 51.2-22.923 51.2-51.2s-22.923-51.2-51.2-51.2h-204.8c-28.277 0-51.2 22.923-51.2 51.2zM716.8-12.8c0 28.277 22.923 51.2 51.2 51.2h204.8c28.277 0 51.2-22.923 51.2-51.2s-22.923-51.2-51.2-51.2h-204.8c-28.277 0-51.2 22.923-51.2 51.2zM409.6 960c28.277 0 51.2-22.923 51.2-51.2v-435.2c0-28.277-22.923-51.2-51.2-51.2s-51.2 22.923-51.2 51.2v435.2c0 28.277 22.923 51.2 51.2 51.2zM614.4 524.8c28.277 0 51.2-22.923 51.2-51.2v-486.4c0-28.277-22.923-51.2-51.2-51.2s-51.2 22.923-51.2 51.2v486.4c0 28.277 22.923 51.2 51.2 51.2zM358.4 908.8c0 28.277 22.923 51.2 51.2 51.2h204.8c28.277 0 51.2-22.923 51.2-51.2s-22.923-51.2-51.2-51.2h-204.8c-28.277 0-51.2 22.923-51.2 51.2zM358.4 473.6c0 28.277 22.923 51.2 51.2 51.2h204.8c28.277 0 51.2-22.923 51.2-51.2s-22.923-51.2-51.2-51.2h-204.8c-28.277 0-51.2 22.923-51.2 51.2zM358.4-12.8c0 28.277 22.923 51.2 51.2 51.2h204.8c28.277 0 51.2-22.923 51.2-51.2s-22.923-51.2-51.2-51.2h-204.8c-28.277 0-51.2 22.923-51.2 51.2zM0 908.8c0 28.277 22.923 51.2 51.2 51.2h204.8c28.277 0 51.2-22.923 51.2-51.2s-22.923-51.2-51.2-51.2h-204.8c-28.277 0-51.2 22.923-51.2 51.2zM0-12.8c0 28.277 22.923 51.2 51.2 51.2h204.8c28.277 0 51.2-22.923 51.2-51.2s-22.923-51.2-51.2-51.2h-204.8c-28.277 0-51.2 22.923-51.2 51.2z" />
<glyph unicode="&#xe924;" glyph-name="cut" horiz-adv-x="1036" d="M375.873 311.873c-86.003 86.003-225.368 86.003-311.371 0s-86.003-225.368 0-311.371c86.003-86.003 225.368-86.003 311.371 0s86.003 225.368 0 311.371zM302.563 73.811c-45.592-45.592-119.419-45.592-164.752 0-45.592 45.592-45.592 119.419 0 164.752s119.419 45.592 164.752 0 45.592-119.419 0-164.752zM971.673 311.873c-86.003 86.003-225.368 86.003-311.371 0s-86.003-225.368 0-311.371c86.003-86.003 225.368-86.003 311.371 0s86.003 225.368 0 311.371zM898.364 73.811c-45.592-45.592-119.419-45.592-164.752 0-45.592 45.592-45.592 119.419 0 164.752s119.419 45.592 164.752 0 45.592-119.419 0-164.752zM472.774 334.564l-352.274 545.576c-15.521 24.038-8.617 56.106 15.421 71.627s56.106 8.617 71.627-15.421l352.274-545.576c15.521-24.038 8.617-56.106-15.421-71.627s-56.106-8.617-71.627 15.421zM483.268 390.711l352.274 545.576c15.521 24.038 47.59 30.942 71.627 15.421s30.942-47.59 15.421-71.627l-352.274-545.576c-15.521-24.038-47.59-30.942-71.627-15.421s-30.942 47.59-15.421 71.627z" />
<glyph unicode="&#xe925;" glyph-name="delete" d="M51.2 832h921.6c28.277 0 51.2-22.923 51.2-51.2s-22.923-51.2-51.2-51.2h-921.6c-28.277 0-51.2 22.923-51.2 51.2s22.923 51.2 51.2 51.2zM230.4 38.4h563.2c28.277 0 51.2-22.923 51.2-51.2s-22.923-51.2-51.2-51.2h-563.2c-28.277 0-51.2 22.923-51.2 51.2s22.923 51.2 51.2 51.2zM384 960h256c28.277 0 51.2-22.923 51.2-51.2s-22.923-51.2-51.2-51.2h-256c-28.277 0-51.2 22.923-51.2 51.2s22.923 51.2 51.2 51.2zM179.2-12.8v614.4c0 28.277 22.923 51.2 51.2 51.2s51.2-22.923 51.2-51.2v-614.4c0-28.277-22.923-51.2-51.2-51.2s-51.2 22.923-51.2 51.2zM358.4-12.8v460.8c0 28.277 22.923 51.2 51.2 51.2s51.2-22.923 51.2-51.2v-460.8c0-28.277-22.923-51.2-51.2-51.2s-51.2 22.923-51.2 51.2zM563.2-12.8v460.8c0 28.277 22.923 51.2 51.2 51.2s51.2-22.923 51.2-51.2v-460.8c0-28.277-22.923-51.2-51.2-51.2s-51.2 22.923-51.2 51.2zM742.4-12.8v614.4c0 28.277 22.923 51.2 51.2 51.2s51.2-22.923 51.2-51.2v-614.4c0-28.277-22.923-51.2-51.2-51.2s-51.2 22.923-51.2 51.2z" />
<glyph unicode="&#xe926;" glyph-name="down" horiz-adv-x="1012" d="M501.248-64c4.096 0 7.936 0.512 11.52 1.536 12.8 0 25.6 5.12 35.328 14.848l449.024 449.024c19.968 19.968 19.968 52.48 0 72.448s-52.48 19.968-72.448 0l-372.224-372.224v807.168c0 28.16-23.040 51.2-51.2 51.2s-51.2-23.040-51.2-51.2v-797.952l-362.752 362.752c-19.968 19.968-52.48 19.968-72.448 0s-19.968-52.48 0-72.448l449.024-449.024s0.512-0.512 1.024-0.768c9.216-9.472 22.272-15.616 36.608-15.616z" />
<glyph unicode="&#xe927;" glyph-name="download" horiz-adv-x="1021" d="M51.034 38.068h918.615c28.185 0 51.034-22.849 51.034-51.034s-22.849-51.034-51.034-51.034h-918.615c-28.185 0-51.034 22.849-51.034 51.034s22.849 51.034 51.034 51.034zM0-12.966v459.307c0 28.185 22.849 51.034 51.034 51.034s51.034-22.849 51.034-51.034v-459.307c0-28.185-22.849-51.034-51.034-51.034s-51.034 22.849-51.034 51.034zM347.972 471.233l193.063-193.063c19.93-19.93 19.93-52.243 0-72.173s-52.243-19.93-72.173 0l-193.063 193.063c-19.93 19.93-19.93 52.243 0 72.173s52.243 19.93 72.173 0zM745.063 399.040l-193.063-193.063c-19.93-19.93-52.243-19.93-72.173 0s-19.93 52.243 0 72.173l193.063 193.063c19.93 19.93 52.243 19.93 72.173 0s19.93-52.243 0-72.173zM918.615-12.966v459.307c0 28.185 22.849 51.034 51.034 51.034s51.034-22.849 51.034-51.034v-459.307c0-28.185-22.849-51.034-51.034-51.034s-51.034 22.849-51.034 51.034zM561.376 908.966v-663.444c0-28.185-22.849-51.034-51.034-51.034s-51.034 22.849-51.034 51.034v663.444c0 28.185 22.849 51.034 51.034 51.034s51.034-22.849 51.034-51.034z" />
<glyph unicode="&#xe928;" glyph-name="download2" d="M51.2 38.4h921.6c28.277 0 51.2-22.923 51.2-51.2s-22.923-51.2-51.2-51.2h-921.6c-28.277 0-51.2 22.923-51.2 51.2s22.923 51.2 51.2 51.2zM51.2 960h921.6c28.277 0 51.2-22.923 51.2-51.2s-22.923-51.2-51.2-51.2h-921.6c-28.277 0-51.2 22.923-51.2 51.2s22.923 51.2 51.2 51.2zM51.2 755.2h921.6c28.277 0 51.2-22.923 51.2-51.2s-22.923-51.2-51.2-51.2h-921.6c-28.277 0-51.2 22.923-51.2 51.2s22.923 51.2 51.2 51.2zM0-12.8v460.8c0 28.277 22.923 51.2 51.2 51.2s51.2-22.923 51.2-51.2v-460.8c0-28.277-22.923-51.2-51.2-51.2s-51.2 22.923-51.2 51.2zM921.6-12.8v460.8c0 28.277 22.923 51.2 51.2 51.2s51.2-22.923 51.2-51.2v-460.8c0-28.277-22.923-51.2-51.2-51.2s-51.2 22.923-51.2 51.2zM349.045 421.714l193.691-193.691c19.995-19.995 19.995-52.413 0-72.408s-52.413-19.995-72.408 0l-193.691 193.691c-19.995 19.995-19.995 52.413 0 72.408s52.413 19.995 72.408 0zM747.426 349.404l-193.691-193.691c-19.995-19.995-52.413-19.995-72.408 0s-19.995 52.413 0 72.408l193.691 193.691c19.995 19.995 52.413 19.995 72.408 0s19.995-52.413 0-72.408zM563.2 523.52v-333.824c0-27.994-22.694-50.688-50.688-50.688h-1.024c-27.994 0-50.688 22.694-50.688 50.688v333.824c0 27.994 22.694 50.688 50.688 50.688h1.024c27.994 0 50.688-22.694 50.688-50.688z" />
<glyph unicode="&#xe929;" glyph-name="email" d="M0 89.6v716.8c0 28.277 22.923 51.2 51.2 51.2s51.2-22.923 51.2-51.2v-716.8c0-28.277-22.923-51.2-51.2-51.2s-51.2 22.923-51.2 51.2zM921.6 89.6v716.8c0 28.277 22.923 51.2 51.2 51.2s51.2-22.923 51.2-51.2v-716.8c0-28.277-22.923-51.2-51.2-51.2s-51.2 22.923-51.2 51.2zM972.8 755.2h-921.6c-28.277 0-51.2 22.923-51.2 51.2s22.923 51.2 51.2 51.2h921.6c28.277 0 51.2-22.923 51.2-51.2s-22.923-51.2-51.2-51.2zM972.8 38.4h-921.6c-28.277 0-51.2 22.923-51.2 51.2s22.923 51.2 51.2 51.2h921.6c28.277 0 51.2-22.923 51.2-51.2s-22.923-51.2-51.2-51.2zM477.718 307.23l-428.654 428.654c-19.995 19.995-19.995 52.413 0 72.408s52.413 19.995 72.408 0l428.654-428.654c19.995-19.995 19.995-52.413 0-72.408s-52.413-19.995-72.408 0zM478.703 379.835l428.654 428.654c19.995 19.995 52.413 19.995 72.408 0s19.995-52.413 0-72.408l-428.654-428.654c-19.995-19.995-52.413-19.995-72.408 0s-19.995 52.413 0 72.408z" />
<glyph unicode="&#xe92a;" glyph-name="eye" d="M623.023 562.257c-63.057 63.057-165.457 63.057-228.783 0s-63.057-165.457 0-228.783 165.457-63.057 228.783 0 63.057 165.457 0 228.783zM470.501 409.735c-21.019 21.019-21.019 55.242 0 76.261s55.242 21.019 76.261 0 21.019-55.242 0-76.261-55.242-21.019-76.261 0zM948.817 583.276c-105.903 133.12-256.539 215.040-433.314 215.040s-321.213-75.183-433.583-215.040-105.903-146.594 0-279.714 256.539-215.040 433.583-215.040 348.429 102.4 433.583 215.040 105.903 146.594 0 279.714zM907.587 443.419c-70.872-145.246-219.621-245.76-392.354-245.76s-321.482 100.244-392.354 245.76c70.872 145.246 219.621 245.76 392.354 245.76s321.482-100.244 392.354-245.76z" />
<glyph unicode="&#xe92b;" glyph-name="eye2" d="M948.817 592.438c-32.337 40.421-68.716 76.261-108.598 106.442l21.019 21.019c21.019 21.019 21.019 55.242 0 76.261s-55.242 21.019-76.261 0l-39.882-39.882c-69.524 32.876-146.594 51.2-229.592 51.2-177.044 0-321.213-75.183-433.583-215.040s-105.903-146.594 0-279.714c32.876-41.499 70.333-77.878 111.293-108.328l-36.918-36.918c-21.019-21.019-21.019-55.242 0-76.261s55.242-21.019 76.261 0l56.32 56.32c68.716-32.067 144.977-49.583 226.627-49.583 177.044 0 348.429 102.4 433.583 215.040s105.903 146.594 0 279.714zM123.149 452.581c70.872 145.246 219.621 245.76 392.354 245.76 51.469 0 100.514-9.162 146.324-25.331l-390.737-390.737c-63.057 42.846-114.257 101.322-147.941 170.307zM515.503 206.821c-50.122 0-98.088 8.623-142.821 24.253l389.928 389.928c61.709-42.577 112.101-100.514 145.246-168.421-70.872-145.246-219.621-245.76-392.354-245.76z" />
<glyph unicode="&#xe92c;" glyph-name="eye3" d="M515.072 396.8c-161.28 0-409.344 78.848-499.712 184.32-18.432 21.504-15.872 53.76 5.632 72.192s53.76 15.872 72.192-5.632c62.976-73.472 275.968-148.48 421.888-148.48s358.912 75.008 421.888 148.48c18.432 21.504 50.688 24.064 72.192 5.632s24.064-50.688 5.632-72.192c-90.368-105.472-338.432-184.32-499.712-184.32zM195.961 440.354l-108.612-108.612c-19.995-19.995-52.413-19.995-72.408 0s-19.995 52.413 0 72.408l108.612 108.612c19.995 19.995 52.413 19.995 72.408 0s19.995-52.413 0-72.408zM433.559 403.135l-46.904-146.263c-8.635-26.926-37.463-41.755-64.389-33.12s-41.755 37.463-33.12 64.389l46.904 146.263c8.635 26.926 37.463 41.755 64.389 33.12s41.755-37.463 33.12-64.389zM906.652 512.955l108.612-108.612c19.995-19.995 19.995-52.413 0-72.408s-52.413-19.995-72.408 0l-108.612 108.612c-19.995 19.995-19.995 52.413 0 72.408s52.413 19.995 72.408 0zM688.907 434.136l46.904-146.263c8.635-26.926-6.194-55.754-33.12-64.389s-55.754 6.194-64.389 33.12l-46.904 146.263c-8.635 26.926 6.194 55.754 33.12 64.389s55.754-6.194 64.389-33.12z" />
<glyph unicode="&#xe92d;" glyph-name="favourite" d="M803.184-40.632c-8.402 0-16.804 2.101-24.418 6.039l-262.302 137.846-262.302-137.846c-17.592-9.19-39.122-7.877-55.401 3.938s-24.156 31.77-21.005 51.463l50.15 292.234-212.152 206.638c-14.178 13.916-19.43 34.921-13.391 53.826s22.581 32.821 42.535 35.709l293.284 42.535 131.282 265.977c8.927 17.854 27.044 29.145 46.999 29.145s38.334-11.29 46.999-29.145l131.282-265.715 293.284-42.535c19.692-2.888 36.234-16.804 42.535-35.709s1.050-39.91-13.391-53.826l-212.152-206.901 50.15-292.234c3.413-19.692-4.726-39.647-21.005-51.463-9.19-6.564-19.955-9.977-30.983-9.977zM516.464 215.106c8.402 0 16.804-2.101 24.418-6.039l192.459-101.35-36.759 214.515c-2.888 17.067 2.626 34.396 15.229 46.474l155.701 151.762-215.303 31.245c-17.067 2.363-31.77 13.128-39.647 28.619l-96.361 195.085-96.361-195.085c-7.614-15.491-22.318-26.256-39.647-28.619l-215.303-31.245 155.701-151.762c12.341-12.078 18.117-29.407 15.229-46.474l-36.759-214.515 192.459 101.35c7.614 3.938 16.016 6.039 24.418 6.039z" />
<glyph unicode="&#xe92e;" glyph-name="favourites" d="M1030.564 573.506c-6.302 18.905-22.581 32.821-42.535 35.709l-293.284 42.535-131.019 265.977c-8.927 17.854-27.044 29.145-46.999 29.145s-38.334-11.29-46.999-29.145l-131.282-265.715-293.284-42.535c-19.692-2.888-36.234-16.804-42.535-35.709s-1.050-39.91 13.391-53.826l212.152-206.901-50.15-292.234c-3.413-19.692 4.726-39.647 21.005-51.463s37.547-13.391 55.401-3.938l262.302 137.846 262.302-137.846c7.614-3.938 16.016-6.039 24.418-6.039 10.765 0 21.793 3.413 30.983 9.977 16.279 11.815 24.156 31.77 21.005 51.463l-50.15 292.234 212.152 206.901c14.178 13.916 19.43 34.921 13.391 53.826z" />
<glyph unicode="&#xe92f;" glyph-name="file" d="M51.2 38.4h921.6c28.277 0 51.2-22.923 51.2-51.2s-22.923-51.2-51.2-51.2h-921.6c-28.277 0-51.2 22.923-51.2 51.2s22.923 51.2 51.2 51.2zM691.2 960h281.6c28.277 0 51.2-22.923 51.2-51.2s-22.923-51.2-51.2-51.2h-281.6c-28.277 0-51.2 22.923-51.2 51.2s22.923 51.2 51.2 51.2zM51.2 960h384c28.277 0 51.2-22.923 51.2-51.2s-22.923-51.2-51.2-51.2h-384c-28.277 0-51.2 22.923-51.2 51.2s22.923 51.2 51.2 51.2zM51.2 755.2h435.2c28.277 0 51.2-22.923 51.2-51.2s-22.923-51.2-51.2-51.2h-435.2c-28.277 0-51.2 22.923-51.2 51.2s22.923 51.2 51.2 51.2zM453.828 743.938l194.777 194.777c19.995 19.995 52.413 19.995 72.408 0s19.995-52.413 0-72.408l-194.777-194.777c-19.995-19.995-52.413-19.995-72.408 0s-19.995 52.413 0 72.408zM0-12.8v716.8c0 28.277 22.923 51.2 51.2 51.2s51.2-22.923 51.2-51.2v-716.8c0-28.277-22.923-51.2-51.2-51.2s-51.2 22.923-51.2 51.2zM921.6-12.8v921.6c0 28.277 22.923 51.2 51.2 51.2s51.2-22.923 51.2-51.2v-921.6c0-28.277-22.923-51.2-51.2-51.2s-51.2 22.923-51.2 51.2z" />
<glyph unicode="&#xe930;" glyph-name="file-in" d="M51.2 38.4h921.6c28.277 0 51.2-22.923 51.2-51.2s-22.923-51.2-51.2-51.2h-921.6c-28.277 0-51.2 22.923-51.2 51.2s22.923 51.2 51.2 51.2zM691.2 960h281.6c28.277 0 51.2-22.923 51.2-51.2s-22.923-51.2-51.2-51.2h-281.6c-28.277 0-51.2 22.923-51.2 51.2s22.923 51.2 51.2 51.2zM51.2 960h384c28.277 0 51.2-22.923 51.2-51.2s-22.923-51.2-51.2-51.2h-384c-28.277 0-51.2 22.923-51.2 51.2s22.923 51.2 51.2 51.2zM51.2 755.2h435.2c28.277 0 51.2-22.923 51.2-51.2s-22.923-51.2-51.2-51.2h-435.2c-28.277 0-51.2 22.923-51.2 51.2s22.923 51.2 51.2 51.2zM453.828 743.938l194.777 194.777c19.995 19.995 52.413 19.995 72.408 0s19.995-52.413 0-72.408l-194.777-194.777c-19.995-19.995-52.413-19.995-72.408 0s-19.995 52.413 0 72.408zM0-12.8v716.8c0 28.277 22.923 51.2 51.2 51.2s51.2-22.923 51.2-51.2v-716.8c0-28.277-22.923-51.2-51.2-51.2s-51.2 22.923-51.2 51.2zM921.6 704v204.8c0 28.277 22.923 51.2 51.2 51.2s51.2-22.923 51.2-51.2v-204.8c0-28.277-22.923-51.2-51.2-51.2s-51.2 22.923-51.2 51.2zM921.6-12.8v204.8c0 28.277 22.923 51.2 51.2 51.2s51.2-22.923 51.2-51.2v-204.8c0-28.277-22.923-51.2-51.2-51.2s-51.2 22.923-51.2 51.2zM972.8 396.8h-358.4c-28.277 0-51.2 22.923-51.2 51.2s22.923 51.2 51.2 51.2h358.4c28.277 0 51.2-22.923 51.2-51.2s-22.923-51.2-51.2-51.2zM579.142 485l100.647 100.647c19.995 19.995 52.413 19.995 72.408 0s19.995-52.413 0-72.408l-100.647-100.647c-19.995-19.995-52.413-19.995-72.408 0s-19.995 52.413 0 72.408zM679.76 310.302l-100.647 100.647c-19.995 19.995-19.995 52.413 0 72.408s52.413 19.995 72.408 0l100.647-100.647c19.995-19.995 19.995-52.413 0-72.408s-52.413-19.995-72.408 0z" />
<glyph unicode="&#xe931;" glyph-name="file-open" d="M51.2 38.4h921.6c28.277 0 51.2-22.923 51.2-51.2s-22.923-51.2-51.2-51.2h-921.6c-28.277 0-51.2 22.923-51.2 51.2s22.923 51.2 51.2 51.2zM691.2 755.2h281.6c28.277 0 51.2-22.923 51.2-51.2s-22.923-51.2-51.2-51.2h-281.6c-28.277 0-51.2 22.923-51.2 51.2s22.923 51.2 51.2 51.2zM51.2 960h921.6c28.277 0 51.2-22.923 51.2-51.2s-22.923-51.2-51.2-51.2h-921.6c-28.277 0-51.2 22.923-51.2 51.2s22.923 51.2 51.2 51.2zM51.2 652.8h537.6c28.277 0 51.2-22.923 51.2-51.2s-22.923-51.2-51.2-51.2h-537.6c-28.277 0-51.2 22.923-51.2 51.2s22.923 51.2 51.2 51.2zM550.458 640.003l98.293 98.293c19.995 19.995 52.413 19.995 72.408 0s19.995-52.413 0-72.408l-98.293-98.293c-19.995-19.995-52.413-19.995-72.408 0s-19.995 52.413 0 72.408zM0-12.8v614.4c0 28.277 22.923 51.2 51.2 51.2s51.2-22.923 51.2-51.2v-614.4c0-28.277-22.923-51.2-51.2-51.2s-51.2 22.923-51.2 51.2zM921.6-12.8v716.8c0 28.277 22.923 51.2 51.2 51.2s51.2-22.923 51.2-51.2v-716.8c0-28.277-22.923-51.2-51.2-51.2s-51.2 22.923-51.2 51.2z" />
<glyph unicode="&#xe932;" glyph-name="file-out" d="M51.2 38.4h921.6c28.277 0 51.2-22.923 51.2-51.2s-22.923-51.2-51.2-51.2h-921.6c-28.277 0-51.2 22.923-51.2 51.2s22.923 51.2 51.2 51.2zM691.2 960h281.6c28.277 0 51.2-22.923 51.2-51.2s-22.923-51.2-51.2-51.2h-281.6c-28.277 0-51.2 22.923-51.2 51.2s22.923 51.2 51.2 51.2zM51.2 960h384c28.277 0 51.2-22.923 51.2-51.2s-22.923-51.2-51.2-51.2h-384c-28.277 0-51.2 22.923-51.2 51.2s22.923 51.2 51.2 51.2zM51.2 755.2h435.2c28.277 0 51.2-22.923 51.2-51.2s-22.923-51.2-51.2-51.2h-435.2c-28.277 0-51.2 22.923-51.2 51.2s22.923 51.2 51.2 51.2zM453.828 743.938l194.777 194.777c19.995 19.995 52.413 19.995 72.408 0s19.995-52.413 0-72.408l-194.777-194.777c-19.995-19.995-52.413-19.995-72.408 0s-19.995 52.413 0 72.408zM0-12.8v716.8c0 28.277 22.923 51.2 51.2 51.2s51.2-22.923 51.2-51.2v-716.8c0-28.277-22.923-51.2-51.2-51.2s-51.2 22.923-51.2 51.2zM921.6 704v204.8c0 28.277 22.923 51.2 51.2 51.2s51.2-22.923 51.2-51.2v-204.8c0-28.277-22.923-51.2-51.2-51.2s-51.2 22.923-51.2 51.2zM921.6-12.8v204.8c0 28.277 22.923 51.2 51.2 51.2s51.2-22.923 51.2-51.2v-204.8c0-28.277-22.923-51.2-51.2-51.2s-51.2 22.923-51.2 51.2zM614.4 499.2h358.4c28.277 0 51.2-22.923 51.2-51.2s-22.923-51.2-51.2-51.2h-358.4c-28.277 0-51.2 22.923-51.2 51.2s22.923 51.2 51.2 51.2zM935.773 412.769l-100.647 100.647c-19.995 19.995-19.995 52.413 0 72.408s52.413 19.995 72.408 0l100.647-100.647c19.995-19.995 19.995-52.413 0-72.408s-52.413-19.995-72.408 0zM835.129 382.668l100.647 100.647c19.995 19.995 52.413 19.995 72.408 0s19.995-52.413 0-72.408l-100.647-100.647c-19.995-19.995-52.413-19.995-72.408 0s-19.995 52.413 0 72.408z" />
<glyph unicode="&#xe933;" glyph-name="fixed" d="M921.6 243.2v449.024c0 28.277 22.923 51.2 51.2 51.2s51.2-22.923 51.2-51.2v-449.024c0-28.277-22.923-51.2-51.2-51.2s-51.2 22.923-51.2 51.2zM972.8 857.6h-921.6c-28.277 0-51.2 22.923-51.2 51.2s22.923 51.2 51.2 51.2h921.6c28.277 0 51.2-22.923 51.2-51.2s-22.923-51.2-51.2-51.2zM972.8-64h-921.6c-28.277 0-51.2 22.923-51.2 51.2s22.923 51.2 51.2 51.2h921.6c28.277 0 51.2-22.923 51.2-51.2s-22.923-51.2-51.2-51.2zM460.8 627.2h-179.2c-28.277 0-51.2 22.923-51.2 51.2s22.923 51.2 51.2 51.2h179.2c28.277 0 51.2-22.923 51.2-51.2s-22.923-51.2-51.2-51.2zM742.4 422.4h-460.8c-28.277 0-51.2 22.923-51.2 51.2s22.923 51.2 51.2 51.2h460.8c28.277 0 51.2-22.923 51.2-51.2s-22.923-51.2-51.2-51.2zM742.4 217.6h-460.8c-28.277 0-51.2 22.923-51.2 51.2s22.923 51.2 51.2 51.2h460.8c28.277 0 51.2-22.923 51.2-51.2s-22.923-51.2-51.2-51.2z" />
<glyph unicode="&#xe934;" glyph-name="flip-x" d="M409.6 960c-9.472 0-18.432-2.816-26.112-7.424-16.128-3.84-29.952-15.36-36.096-32l-335.104-900.608c-7.424-8.96-12.288-20.224-12.288-32.768 0-28.16 23.040-51.2 51.2-51.2h358.4c28.16 0 51.2 23.040 51.2 51.2v921.6c0 28.16-23.040 51.2-51.2 51.2zM358.4 656.64v-618.24h-230.144l230.144 618.24zM1011.712 19.968l-335.104 900.864c-6.144 16.64-20.224 28.16-36.096 32-7.68 4.608-16.384 7.424-26.112 7.424-28.16 0-51.2-23.040-51.2-51.2v-921.6c0-28.16 23.040-51.2 51.2-51.2h358.4c28.16 0 51.2 23.040 51.2 51.2 0 12.544-4.608 23.808-12.288 32.768z" />
<glyph unicode="&#xe935;" glyph-name="flip-y" d="M51.2 499.2h921.6c28.16 0 51.2 23.040 51.2 51.2 0 9.472-2.816 18.432-7.424 26.112-3.84 16.128-15.36 29.952-32 36.096l-900.608 335.104c-8.96 7.424-20.224 12.288-32.768 12.288-28.16 0-51.2-23.040-51.2-51.2v-358.4c0-28.16 23.040-51.2 51.2-51.2zM102.4 601.6v230.144l618.24-230.144h-618.24zM972.8 396.8h-921.6c-28.16 0-51.2-23.040-51.2-51.2v-358.4c0-28.16 23.040-51.2 51.2-51.2 12.544 0 23.808 4.608 32.768 12.288l900.864 335.104c16.64 6.144 28.16 20.224 32 36.096 4.608 7.68 7.424 16.384 7.424 26.112 0 28.16-23.040 51.2-51.2 51.2z" />
<glyph unicode="&#xe936;" glyph-name="font" d="M614.4 857.6h-204.8c-28.277 0-51.2 22.923-51.2 51.2s22.923 51.2 51.2 51.2h204.8c28.277 0 51.2-22.923 51.2-51.2s-22.923-51.2-51.2-51.2zM563.2 320v-332.8c0-28.277-22.923-51.2-51.2-51.2s-51.2 22.923-51.2 51.2v332.8c0 28.277 22.923 51.2 51.2 51.2s51.2-22.923 51.2-51.2zM691.2 499.2h-358.4c-28.277 0-51.2 22.923-51.2 51.2s22.923 51.2 51.2 51.2h358.4c28.277 0 51.2-22.923 51.2-51.2s-22.923-51.2-51.2-51.2zM512-64h-169.984c-28.277 0-51.2 22.923-51.2 51.2s22.923 51.2 51.2 51.2h169.984c28.277 0 51.2-22.923 51.2-51.2s-22.923-51.2-51.2-51.2zM726.091 512.785l-180.114-180.114c-19.995-19.995-52.413-19.995-72.408 0s-19.995 52.413 0 72.408l180.114 180.114c19.995 19.995 52.413 19.995 72.408 0s19.995-52.413 0-72.408zM972.8 294.4h-921.6c-28.277 0-51.2 22.923-51.2 51.2s22.923 51.2 51.2 51.2h921.6c28.277 0 51.2-22.923 51.2-51.2s-22.923-51.2-51.2-51.2zM102.4 729.6v-192c0-28.277-22.923-51.2-51.2-51.2s-51.2 22.923-51.2 51.2v192c0 28.277 22.923 51.2 51.2 51.2s51.2-22.923 51.2-51.2zM1024 729.6v-192c0-28.277-22.923-51.2-51.2-51.2s-51.2 22.923-51.2 51.2v192c0 28.277 22.923 51.2 51.2 51.2s51.2-22.923 51.2-51.2zM972.8 678.4h-921.6c-28.277 0-51.2 22.923-51.2 51.2s22.923 51.2 51.2 51.2h921.6c28.277 0 51.2-22.923 51.2-51.2s-22.923-51.2-51.2-51.2z" />
<glyph unicode="&#xe937;" glyph-name="fullscreen" d="M340.736 691.456l-166.144 166.144h19.968c28.16 0 51.2 23.040 51.2 51.2s-22.784 51.2-50.944 51.2h-142.336s-0.512 0-1.024 0c-13.056 0-26.368-4.864-36.352-15.104s-15.104-23.296-15.104-36.352c0-0.512 0-0.768 0-1.024v-142.336c0-28.16 23.040-51.2 51.2-51.2v0c28.16 0 51.2 23.040 51.2 51.2v19.968s166.144-166.144 166.144-166.144c19.968-19.968 52.48-19.968 72.448 0s19.968 52.48 0 72.448zM683.264 691.456l166.144 166.144h-19.968c-28.16 0-51.2 23.040-51.2 51.2s22.784 51.2 50.944 51.2h142.336s0.512 0 1.024 0c13.312 0 26.624-4.864 36.608-14.848s15.104-23.296 14.848-36.608c0-0.256 0-0.512 0-1.024v-142.336c0-28.16-23.040-51.2-51.2-51.2v0c-28.16 0-51.2 23.040-51.2 51.2v19.968s-166.144-166.144-166.144-166.144c-19.968-19.968-52.48-19.968-72.448 0s-19.968 52.48 0 72.448zM340.736 204.544l-166.144-166.144h19.968c28.16 0 51.2-23.040 51.2-51.2s-23.040-51.2-51.2-51.2h-142.080s-0.512 0-1.024 0c-13.312 0-26.624 4.864-36.608 14.848s-14.848 23.552-14.848 36.608c0 0.512 0 0.768 0 1.024v142.336c0 28.16 23.040 51.2 51.2 51.2v0c28.16 0 51.2-23.040 51.2-51.2v-19.968l166.144 166.144c19.968 19.968 52.48 19.968 72.448 0s19.968-52.48 0-72.448zM683.264 204.544l166.144-166.144h-19.968c-28.16 0-51.2-23.040-51.2-51.2s23.040-51.2 51.2-51.2h142.336s0.512 0 1.024 0c13.312 0 26.624 4.864 36.608 14.848s15.104 23.296 14.848 36.608c0 0.256 0 0.512 0 1.024v142.336c0 28.16-23.040 51.2-51.2 51.2v0c-28.16 0-51.2-23.040-51.2-51.2v-19.968s-166.144 166.144-166.144 166.144c-19.968 19.968-52.48 19.968-72.448 0s-19.968-52.48 0-72.448z" />
<glyph unicode="&#xe938;" glyph-name="grid-box" d="M204.8 704h-153.6c-28.277 0-51.2 22.923-51.2 51.2v153.6c0 28.277 22.923 51.2 51.2 51.2h153.6c28.277 0 51.2-22.923 51.2-51.2v-153.6c0-28.277-22.923-51.2-51.2-51.2zM972.8 704h-153.6c-28.277 0-51.2 22.923-51.2 51.2v153.6c0 28.277 22.923 51.2 51.2 51.2h153.6c28.277 0 51.2-22.923 51.2-51.2v-153.6c0-28.277-22.923-51.2-51.2-51.2zM588.8 704h-153.6c-28.277 0-51.2 22.923-51.2 51.2v153.6c0 28.277 22.923 51.2 51.2 51.2h153.6c28.277 0 51.2-22.923 51.2-51.2v-153.6c0-28.277-22.923-51.2-51.2-51.2zM204.8 320h-153.6c-28.277 0-51.2 22.923-51.2 51.2v153.6c0 28.277 22.923 51.2 51.2 51.2h153.6c28.277 0 51.2-22.923 51.2-51.2v-153.6c0-28.277-22.923-51.2-51.2-51.2zM972.8 320h-153.6c-28.277 0-51.2 22.923-51.2 51.2v153.6c0 28.277 22.923 51.2 51.2 51.2h153.6c28.277 0 51.2-22.923 51.2-51.2v-153.6c0-28.277-22.923-51.2-51.2-51.2zM588.8 320h-153.6c-28.277 0-51.2 22.923-51.2 51.2v153.6c0 28.277 22.923 51.2 51.2 51.2h153.6c28.277 0 51.2-22.923 51.2-51.2v-153.6c0-28.277-22.923-51.2-51.2-51.2zM204.8-64h-153.6c-28.277 0-51.2 22.923-51.2 51.2v153.6c0 28.277 22.923 51.2 51.2 51.2h153.6c28.277 0 51.2-22.923 51.2-51.2v-153.6c0-28.277-22.923-51.2-51.2-51.2zM972.8-64h-153.6c-28.277 0-51.2 22.923-51.2 51.2v153.6c0 28.277 22.923 51.2 51.2 51.2h153.6c28.277 0 51.2-22.923 51.2-51.2v-153.6c0-28.277-22.923-51.2-51.2-51.2zM588.8-64h-153.6c-28.277 0-51.2 22.923-51.2 51.2v153.6c0 28.277 22.923 51.2 51.2 51.2h153.6c28.277 0 51.2-22.923 51.2-51.2v-153.6c0-28.277-22.923-51.2-51.2-51.2z" />
<glyph unicode="&#xe939;" glyph-name="grid-line" d="M972.8 704h-921.6c-28.277 0-51.2 22.923-51.2 51.2v153.6c0 28.277 22.923 51.2 51.2 51.2h921.6c28.277 0 51.2-22.923 51.2-51.2v-153.6c0-28.277-22.923-51.2-51.2-51.2zM972.8-64h-921.6c-28.277 0-51.2 22.923-51.2 51.2v153.6c0 28.277 22.923 51.2 51.2 51.2h921.6c28.277 0 51.2-22.923 51.2-51.2v-153.6c0-28.277-22.923-51.2-51.2-51.2zM972.8 320h-921.6c-28.277 0-51.2 22.923-51.2 51.2v153.6c0 28.277 22.923 51.2 51.2 51.2h921.6c28.277 0 51.2-22.923 51.2-51.2v-153.6c0-28.277-22.923-51.2-51.2-51.2z" />
<glyph unicode="&#xe93a;" glyph-name="grid-list" d="M0-12.8v921.6c0 28.277 22.923 51.2 51.2 51.2h153.6c28.277 0 51.2-22.923 51.2-51.2v-921.6c0-28.277-22.923-51.2-51.2-51.2h-153.6c-28.277 0-51.2 22.923-51.2 51.2zM768-12.8v921.6c0 28.277 22.923 51.2 51.2 51.2h153.6c28.277 0 51.2-22.923 51.2-51.2v-921.6c0-28.277-22.923-51.2-51.2-51.2h-153.6c-28.277 0-51.2 22.923-51.2 51.2zM384-12.8v921.6c0 28.277 22.923 51.2 51.2 51.2h153.6c28.277 0 51.2-22.923 51.2-51.2v-921.6c0-28.277-22.923-51.2-51.2-51.2h-153.6c-28.277 0-51.2 22.923-51.2 51.2z" />
<glyph unicode="&#xe93b;" glyph-name="group" d="M639.744 482.304c76.544 44.288 128.256 126.72 128.256 221.696 0 141.312-114.688 256-256 256s-256-114.688-256-256c0-94.72 51.712-177.408 128.256-221.696-220.672-56.832-384.256-257.024-384.256-495.104 0-28.16 23.040-51.2 51.2-51.2s51.2 23.040 51.2 51.2c0 225.792 183.808 409.6 409.6 409.6s409.6-183.808 409.6-409.6c0-28.16 23.040-51.2 51.2-51.2s51.2 23.040 51.2 51.2c0 238.080-163.584 438.272-384.256 495.104zM512 857.6c84.736 0 153.6-68.864 153.6-153.6s-68.864-153.6-153.6-153.6-153.6 68.864-153.6 153.6 68.864 153.6 153.6 153.6zM998.4 678.4c0 106.496-65.28 197.888-158.208 236.288-0.256 0-0.512 0-0.768 0-6.144 2.816-13.056 4.352-20.224 4.352-28.16 0-51.2-23.040-51.2-51.2 0-20.224 11.776-37.632 28.928-45.824 0 0 0 0 0 0 0.512 0 1.024-0.512 1.792-0.768 0.256 0 0.512-0.256 1.024-0.512 56.32-22.784 96.512-77.824 96.512-142.080 0-56.064-30.464-104.704-75.264-131.584-21.76-7.936-37.376-28.416-37.376-52.736 0-31.232 25.088-56.32 56.32-56.32 9.728 0 18.688 2.56 26.624 6.912 9.728 2.048 19.456 3.328 29.696 3.328 39.424 0 75.264-15.104 102.4-39.424v120.064c-12.8 5.632-25.856 10.24-39.68 13.568 24.832 39.424 39.68 86.016 39.68 136.192z" />
<glyph unicode="&#xe93c;" glyph-name="gumai" d="M0 960v-512h512v512h-512zM386.816 573.184h-261.632v261.632h261.888v-261.888zM512 448h512v-512h-512v512zM596.992 879.616v-351.488h351.488v351.488h-351.488zM893.952 582.656h-242.432v242.432h242.432v-242.432zM107.008 322.304h297.984v-297.984h-297.984v297.984z" />
<glyph unicode="&#xe93d;" glyph-name="h5" d="M409.6 960c28.277 0 51.2-22.923 51.2-51.2v-921.6c0-28.277-22.923-51.2-51.2-51.2s-51.2 22.923-51.2 51.2v921.6c0 28.277 22.923 51.2 51.2 51.2zM51.2 960c28.277 0 51.2-22.923 51.2-51.2v-921.6c0-28.277-22.923-51.2-51.2-51.2s-51.2 22.923-51.2 51.2v921.6c0 28.277 22.923 51.2 51.2 51.2zM614.4 960c28.277 0 51.2-22.923 51.2-51.2v-435.2c0-28.277-22.923-51.2-51.2-51.2s-51.2 22.923-51.2 51.2v435.2c0 28.277 22.923 51.2 51.2 51.2zM972.8 524.8c28.277 0 51.2-22.923 51.2-51.2v-486.4c0-28.277-22.923-51.2-51.2-51.2s-51.2 22.923-51.2 51.2v486.4c0 28.277 22.923 51.2 51.2 51.2zM0 473.6c0 28.277 22.923 51.2 51.2 51.2h358.4c28.277 0 51.2-22.923 51.2-51.2s-22.923-51.2-51.2-51.2h-358.4c-28.277 0-51.2 22.923-51.2 51.2zM563.2-12.8c0 28.277 22.923 51.2 51.2 51.2h358.4c28.277 0 51.2-22.923 51.2-51.2s-22.923-51.2-51.2-51.2h-358.4c-28.277 0-51.2 22.923-51.2 51.2zM563.2 908.8c0 28.277 22.923 51.2 51.2 51.2h358.4c28.277 0 51.2-22.923 51.2-51.2s-22.923-51.2-51.2-51.2h-358.4c-28.277 0-51.2 22.923-51.2 51.2zM563.2 473.6c0 28.277 22.923 51.2 51.2 51.2h358.4c28.277 0 51.2-22.923 51.2-51.2s-22.923-51.2-51.2-51.2h-358.4c-28.277 0-51.2 22.923-51.2 51.2z" />
<glyph unicode="&#xe93e;" glyph-name="home" horiz-adv-x="1015" d="M145.917-12.606v439.042c0 28.527 23.125 51.652 51.652 51.652s51.652-23.125 51.652-51.652v-439.042c0-28.527-23.125-51.652-51.652-51.652s-51.652 23.125-51.652 51.652zM817.65-64.258h-619.823c-28.527 0-51.652 23.125-51.652 51.652s23.125 51.652 51.652 51.652h619.823c28.527 0 51.652-23.125 51.652-51.652s-23.125-51.652-51.652-51.652zM15.035 497.953l447.23 447.23c20.171 20.171 52.876 20.171 73.047 0s20.171-52.876 0-73.047l-447.23-447.23c-20.171-20.171-52.876-20.171-73.047 0s-20.171 52.876 0 73.047zM926.968 424.63l-447.23 447.23c-20.171 20.171-20.171 52.876 0 73.047s52.876 20.171 73.047 0l447.23-447.23c20.171-20.171 20.171-52.876 0-73.047s-52.876-20.171-73.047 0zM765.74-12.606v439.042c0 28.527 23.125 51.652 51.652 51.652s51.652-23.125 51.652-51.652v-439.042c0-28.527-23.125-51.652-51.652-51.652s-51.652 23.125-51.652 51.652z" />
<glyph unicode="&#xe93f;" glyph-name="html" d="M51.2 960c28.277 0 51.2-22.923 51.2-51.2v-358.4c0-28.277-22.923-51.2-51.2-51.2s-51.2 22.923-51.2 51.2v358.4c0 28.277 22.923 51.2 51.2 51.2zM409.6 960c28.277 0 51.2-22.923 51.2-51.2v-358.4c0-28.277-22.923-51.2-51.2-51.2s-51.2 22.923-51.2 51.2v358.4c0 28.277 22.923 51.2 51.2 51.2zM409.6 396.8s-1.28 0-1.792 0c-22.784 0.512-45.568-12.032-55.808-33.536l-121.856-256.512-121.856 256.512c-10.24 21.504-32.768 34.048-55.552 33.536-0.512 0-1.28 0-1.792 0-27.904 0-50.944-23.040-50.944-51.2v-358.4c0-28.16 23.040-51.2 51.2-51.2s51.2 23.040 51.2 51.2v131.072l70.4-148.48c10.496-22.016 34.048-34.816 57.344-33.536 23.552-1.28 47.104 11.52 57.344 33.536l70.656 148.992v-131.584c0-28.16 23.040-51.2 51.2-51.2s51.2 23.040 51.2 51.2v358.4c0 28.16-23.040 51.2-51.2 51.2zM614.4 396.8c28.277 0 51.2-22.923 51.2-51.2v-358.4c0-28.277-22.923-51.2-51.2-51.2s-51.2 22.923-51.2 51.2v358.4c0 28.277 22.923 51.2 51.2 51.2zM563.2 908.8c0 28.277 22.923 51.2 51.2 51.2h358.4c28.277 0 51.2-22.923 51.2-51.2s-22.923-51.2-51.2-51.2h-358.4c-28.277 0-51.2 22.923-51.2 51.2zM563.2-12.8c0 28.277 22.923 51.2 51.2 51.2h358.4c28.277 0 51.2-22.923 51.2-51.2s-22.923-51.2-51.2-51.2h-358.4c-28.277 0-51.2 22.923-51.2 51.2zM793.6 499.2c-28.277 0-51.2 22.923-51.2 51.2v358.4c0 28.277 22.923 51.2 51.2 51.2s51.2-22.923 51.2-51.2v-358.4c0-28.277-22.923-51.2-51.2-51.2zM0 729.6c0 28.277 22.923 51.2 51.2 51.2h358.4c28.277 0 51.2-22.923 51.2-51.2s-22.923-51.2-51.2-51.2h-358.4c-28.277 0-51.2 22.923-51.2 51.2z" />
<glyph unicode="&#xe940;" glyph-name="image" d="M748.544 518.656c59.904 59.904 59.904 157.184 0 217.344s-157.184 59.904-217.344 0-59.904-157.184 0-217.344c59.904-59.904 157.184-59.904 217.344 0zM603.648 663.552c19.968 19.968 52.48 19.968 72.448 0s19.968-52.48 0-72.448c-19.968-19.968-52.48-19.968-72.448 0s-19.968 52.48 0 72.448zM1024 64v844.8c0 28.16-23.040 51.2-51.2 51.2h-921.6c-28.16 0-51.2-23.040-51.2-51.2 0 0 0 0 0 0v-921.6s0 0 0 0c0-0.768 0-1.28 0-2.048 1.024-27.136 23.296-48.896 50.688-49.152 0 0 0.256 0 0.512 0h921.6c28.16 0 51.2 23.040 51.2 51.2v76.8zM102.4 857.6h819.2v-683.264l-248.576 210.176c-16.896 14.336-41.216 16.128-60.16 4.352l-169.216-105.728-341.248 364.288v210.176zM102.4 497.664l295.424-315.136c16.64-17.92 43.776-21.504 64.512-8.448l173.056 108.288 286.208-242.176v-1.792h-819.2v459.264z" />
<glyph unicode="&#xe941;" glyph-name="image2" d="M748.544 518.656c59.904 59.904 59.904 157.184 0 217.344s-157.184 59.904-217.344 0-59.904-157.184 0-217.344c59.904-59.904 157.184-59.904 217.344 0zM603.648 663.552c19.968 19.968 52.48 19.968 72.448 0s19.968-52.48 0-72.448c-19.968-19.968-52.48-19.968-72.448 0s-19.968 52.48 0 72.448zM1024 64v844.8c0 28.16-23.040 51.2-51.2 51.2h-921.6c-28.16 0-51.2-23.040-51.2-51.2 0 0 0 0 0 0v-921.6s0 0 0 0c0-0.768 0-1.28 0-2.048 1.024-27.136 23.296-48.896 50.688-49.152 0 0 0.256 0 0.512 0h921.6c28.16 0 51.2 23.040 51.2 51.2v76.8zM102.4 857.6h819.2v-708.864s-352.768 97.792-483.584 172.8-335.616 325.888-335.616 325.888v210.176zM102.4 497.664s103.424-135.168 281.6-254.464c256-153.6 537.6-203.008 537.6-203.008v-1.792h-819.2v459.264z" />
<glyph unicode="&#xe942;" glyph-name="images" d="M742.4 526.080v227.84c0 14.845 12.035 26.88 26.88 26.88h48.64c14.845 0 26.88-12.035 26.88-26.88v-227.84c0-14.845-12.035-26.88-26.88-26.88h-48.64c-14.845 0-26.88 12.035-26.88 26.88zM563.2 526.080v227.84c0 14.845 12.035 26.88 26.88 26.88h48.64c14.845 0 26.88-12.035 26.88-26.88v-227.84c0-14.845-12.035-26.88-26.88-26.88h-48.64c-14.845 0-26.88 12.035-26.88 26.88zM817.92 678.4h-227.84c-14.845 0-26.88 12.035-26.88 26.88v48.64c0 14.845 12.035 26.88 26.88 26.88h227.84c14.845 0 26.88-12.035 26.88-26.88v-48.64c0-14.845-12.035-26.88-26.88-26.88zM817.92 499.2h-227.84c-14.845 0-26.88 12.035-26.88 26.88v48.64c0 14.845 12.035 26.88 26.88 26.88h227.84c14.845 0 26.88-12.035 26.88-26.88v-48.64c0-14.845-12.035-26.88-26.88-26.88zM384 526.080v227.84c0 14.845 12.035 26.88 26.88 26.88h48.64c14.845 0 26.88-12.035 26.88-26.88v-227.84c0-14.845-12.035-26.88-26.88-26.88h-48.64c-14.845 0-26.88 12.035-26.88 26.88zM1024 64v844.8c0 28.16-23.040 51.2-51.2 51.2h-921.6c-28.16 0-51.2-23.040-51.2-51.2 0 0 0 0 0 0v-921.6c0-28.16 23.040-51.2 51.2-51.2h921.6c28.16 0 51.2 23.040 51.2 51.2v76.8zM102.4 857.6h819.2v-683.264l-248.576 210.176c-16.896 14.336-41.216 16.128-60.16 4.352l-169.216-105.728-341.248 364.288v210.176zM102.4 497.664l295.424-315.136c16.64-17.92 43.776-21.504 64.512-8.448l173.056 108.288 286.208-242.176v-1.792h-819.2v459.264z" />
<glyph unicode="&#xe943;" glyph-name="ipad" horiz-adv-x="819" d="M716.8 960h-614.4c-56.32 0-102.4-46.080-102.4-102.4v-819.2c0-56.32 46.080-102.4 102.4-102.4h614.4c56.32 0 102.4 46.080 102.4 102.4v819.2c0 56.32-46.080 102.4-102.4 102.4zM409.6-12.8c-28.16 0-51.2 23.040-51.2 51.2s23.040 51.2 51.2 51.2 51.2-23.040 51.2-51.2-23.040-51.2-51.2-51.2zM716.8 192c0-28.16-23.040-51.2-51.2-51.2h-512c-28.16 0-51.2 23.040-51.2 51.2v614.4c0 28.16 23.040 51.2 51.2 51.2h512c28.16 0 51.2-23.040 51.2-51.2v-614.4z" />
<glyph unicode="&#xe944;" glyph-name="js" d="M409.6 960c28.277 0 51.2-22.923 51.2-51.2v-921.6c0-28.277-22.923-51.2-51.2-51.2s-51.2 22.923-51.2 51.2v921.6c0 28.277 22.923 51.2 51.2 51.2zM614.4 960c28.277 0 51.2-22.923 51.2-51.2v-435.2c0-28.277-22.923-51.2-51.2-51.2s-51.2 22.923-51.2 51.2v435.2c0 28.277 22.923 51.2 51.2 51.2zM972.8 524.8c28.277 0 51.2-22.923 51.2-51.2v-486.4c0-28.277-22.923-51.2-51.2-51.2s-51.2 22.923-51.2 51.2v486.4c0 28.277 22.923 51.2 51.2 51.2zM0-12.8c0 28.277 22.923 51.2 51.2 51.2h358.4c28.277 0 51.2-22.923 51.2-51.2s-22.923-51.2-51.2-51.2h-358.4c-28.277 0-51.2 22.923-51.2 51.2zM563.2-12.8c0 28.277 22.923 51.2 51.2 51.2h358.4c28.277 0 51.2-22.923 51.2-51.2s-22.923-51.2-51.2-51.2h-358.4c-28.277 0-51.2 22.923-51.2 51.2zM563.2 908.8c0 28.277 22.923 51.2 51.2 51.2h358.4c28.277 0 51.2-22.923 51.2-51.2s-22.923-51.2-51.2-51.2h-358.4c-28.277 0-51.2 22.923-51.2 51.2zM563.2 473.6c0 28.277 22.923 51.2 51.2 51.2h358.4c28.277 0 51.2-22.923 51.2-51.2s-22.923-51.2-51.2-51.2h-358.4c-28.277 0-51.2 22.923-51.2 51.2z" />
<glyph unicode="&#xe945;" glyph-name="kalei" d="M1013.953 291.502c-45.082-202.739-225.409-352.926-431.754-352.926-14.941-3.864-26.276-3.864-41.218 3.864 0 3.864 14.941 60.023 18.806 63.887 3.864 14.941 7.471 30.14 7.471 45.082 11.335 90.164-7.471 180.327-48.946 262.762 0 11.335 3.864 18.806 3.864 30.14 33.747 154.051 123.91 285.432 259.156 368.125 22.412 14.941 48.946 26.276 71.358 37.611 14.941 7.471 30.14 11.335 45.082 14.941 0-30.14 11.335-60.023 26.276-86.299v0c7.471-11.335 22.412-30.14 22.412-30.14 67.494-108.969 93.77-232.879 67.494-356.79zM690.91 851.031c18.806-33.747 33.747-67.494 45.082-101.498-135.245-82.693-225.409-214.074-259.156-368.125 0-7.471-3.864-11.335-3.864-18.806-48.946 93.77-131.381 165.128-229.015 202.739 30.14 120.046 101.498 225.409 199.133 304.237 48.946 37.611 105.105 71.358 165.128 90.164 33.747-33.747 60.023-67.494 82.693-108.969zM476.836 6.070c0-3.864 0-7.471-3.864-11.335-3.864-18.806-11.335-37.611-14.941-52.552-30.14 3.864-56.417 7.471-82.693 14.941-14.941 3.864-30.14 11.335-48.946 18.806-150.187 63.887-251.685 202.739-270.491 360.396 0 14.941 0 33.747-3.864 48.946-7.471 56.417-22.412 112.576-52.552 165.128 30.14 0 56.417 0 82.693-3.864 41.218-3.864 86.299-14.941 123.91-30.14 101.498-37.611 180.327-112.576 232.879-210.21v0c41.218-78.829 60.023-168.992 48.946-259.156-3.864-14.941-7.471-30.14-11.335-41.218z" />
<glyph unicode="&#xe946;" glyph-name="key" horiz-adv-x="1037" d="M758.302 493.966c-61.111 0-117.704-19.927-163.67-53.405l-40.12 40.12 30.555 30.555c20.724 20.724 20.724 54.468 0 74.927-20.724 20.724-54.468 20.724-74.927 0l-30.555-30.555-57.656 57.656 83.163 83.163c20.724 20.724 20.724 54.468 0 75.193v0c-20.724 20.724-54.468 20.724-75.193 0l-83.163-83.163-57.656 57.656 117.439 117.439c20.724 20.724 20.724 54.468 0 75.193v0c-20.724 20.724-54.734 20.724-75.193 0.266l-117.439-117.439-123.284 123.018c-20.724 20.459-54.468 20.459-75.193 0-20.459-20.724-20.459-54.468 0-75.193l506.686-506.686c-26.835-42.777-42.777-93.526-42.777-147.728 0-153.839 125.144-278.983 278.983-278.983s278.983 125.144 278.983 278.983-125.144 278.983-278.983 278.983zM758.302 42.279c-95.12 0-172.704 77.584-172.704 172.704s77.584 172.704 172.704 172.704 172.704-77.584 172.704-172.704-77.584-172.704-172.704-172.704zM851.296 214.983c0-51.359-41.635-92.994-92.994-92.994s-92.994 41.635-92.994 92.994c0 51.359 41.635 92.994 92.994 92.994s92.994-41.635 92.994-92.994z" />
<glyph unicode="&#xe947;" glyph-name="keyboard" d="M0 115.2v665.6c0 28.277 22.923 51.2 51.2 51.2s51.2-22.923 51.2-51.2v-665.6c0-28.277-22.923-51.2-51.2-51.2s-51.2 22.923-51.2 51.2zM921.6 115.2v665.6c0 28.277 22.923 51.2 51.2 51.2s51.2-22.923 51.2-51.2v-665.6c0-28.277-22.923-51.2-51.2-51.2s-51.2 22.923-51.2 51.2zM972.8 729.6h-921.6c-28.277 0-51.2 22.923-51.2 51.2s22.923 51.2 51.2 51.2h921.6c28.277 0 51.2-22.923 51.2-51.2s-22.923-51.2-51.2-51.2zM972.8 64h-921.6c-28.277 0-51.2 22.923-51.2 51.2s22.923 51.2 51.2 51.2h921.6c28.277 0 51.2-22.923 51.2-51.2s-22.923-51.2-51.2-51.2zM230.4 576h-25.6c-28.277 0-51.2 22.923-51.2 51.2s22.923 51.2 51.2 51.2h25.6c28.277 0 51.2-22.923 51.2-51.2s-22.923-51.2-51.2-51.2zM230.4 396.8h-25.6c-28.277 0-51.2 22.923-51.2 51.2s22.923 51.2 51.2 51.2h25.6c28.277 0 51.2-22.923 51.2-51.2s-22.923-51.2-51.2-51.2zM409.6 396.8h-25.6c-28.277 0-51.2 22.923-51.2 51.2s22.923 51.2 51.2 51.2h25.6c28.277 0 51.2-22.923 51.2-51.2s-22.923-51.2-51.2-51.2zM409.6 576h-25.6c-28.277 0-51.2 22.923-51.2 51.2s22.923 51.2 51.2 51.2h25.6c28.277 0 51.2-22.923 51.2-51.2s-22.923-51.2-51.2-51.2zM614.4 576h-25.6c-28.277 0-51.2 22.923-51.2 51.2s22.923 51.2 51.2 51.2h25.6c28.277 0 51.2-22.923 51.2-51.2s-22.923-51.2-51.2-51.2zM819.2 217.6h-25.6c-28.277 0-51.2 22.923-51.2 51.2s22.923 51.2 51.2 51.2h25.6c28.277 0 51.2-22.923 51.2-51.2s-22.923-51.2-51.2-51.2zM230.4 217.6h-25.6c-28.277 0-51.2 22.923-51.2 51.2s22.923 51.2 51.2 51.2h25.6c28.277 0 51.2-22.923 51.2-51.2s-22.923-51.2-51.2-51.2zM640 217.6h-256c-28.277 0-51.2 22.923-51.2 51.2s22.923 51.2 51.2 51.2h256c28.277 0 51.2-22.923 51.2-51.2s-22.923-51.2-51.2-51.2zM819.2 396.8h-230.4c-28.277 0-51.2 22.923-51.2 51.2s22.923 51.2 51.2 51.2h230.4c28.277 0 51.2-22.923 51.2-51.2s-22.923-51.2-51.2-51.2zM870.4 627.2v-179.2c0-28.277-22.923-51.2-51.2-51.2s-51.2 22.923-51.2 51.2v179.2c0 28.277 22.923 51.2 51.2 51.2s51.2-22.923 51.2-51.2z" />
<glyph unicode="&#xe948;" glyph-name="like" d="M514.626-1.247c-8.139 0-16.279 3.151-22.055 9.19l-412.488 412.488c-106.601 106.601-106.601 280.418 0 387.019l6.827 6.827c51.725 51.725 120.254 80.082 193.51 80.082s141.785-28.357 193.51-80.082l40.697-40.697 40.697 40.697c51.725 51.725 120.517 80.082 193.51 80.082s141.785-28.357 193.51-80.082l6.827-6.827c51.725-51.725 80.082-120.254 80.082-193.51 0-72.993-28.357-141.785-80.082-193.51l-412.488-412.488c-5.776-5.776-13.653-9.19-22.055-9.19v0zM308.25 787.233c-49.887 0-96.624-19.43-131.807-54.613l-6.039-6.039c-72.73-72.73-46.474-190.884 26.256-263.614l317.965-317.965 317.965 317.965c35.184 35.184 80.87 81.92 80.87 131.807s-19.43 96.624-54.613 131.807l-6.039 6.039c-35.184 35.184-81.92 54.613-131.807 54.613s-96.624-45.686-131.807-80.87l-55.138-55.138c-10.765-10.765-28.094-10.765-38.859 0 0 0 0 0 0 0l-55.401 55.138c-35.184 35.184-81.92 80.87-131.807 80.87z" />
<glyph unicode="&#xe949;" glyph-name="likes" d="M514.626-1.247c-8.139 0-16.279 3.151-22.055 9.19l-412.488 412.488c-106.601 106.601-106.601 280.418 0 387.019l6.827 6.827c51.725 51.725 120.254 80.082 193.51 80.082s141.785-28.357 193.51-80.082l40.697-40.697 40.697 40.697c51.725 51.725 120.517 80.082 193.51 80.082s141.785-28.357 193.51-80.082l6.827-6.827c51.725-51.725 80.082-120.254 80.082-193.51 0-72.993-28.357-141.785-80.082-193.51l-412.488-412.488c-5.776-5.776-13.653-9.19-22.055-9.19v0z" />
<glyph unicode="&#xe94a;" glyph-name="line" d="M14.874 23.829l910.393 908.488c20.016 19.974 52.434 19.94 72.408-0.076s19.94-52.434-0.076-72.408l-910.393-908.488c-20.016-19.974-52.434-19.94-72.408 0.076s-19.94 52.434 0.076 72.408z" />
<glyph unicode="&#xe94b;" glyph-name="lock-close" d="M1024 524.8c0 28.16-23.040 51.2-51.2 51.2 0 0 0 0 0 0h-153.6v179.2c0 112.896-91.904 204.8-204.8 204.8h-204.8c-112.896 0-204.8-91.904-204.8-204.8v-179.2h-153.6s0 0 0 0c-28.16 0-51.2-23.040-51.2-51.2v-537.6c0-14.080 5.632-26.88 15.104-36.096s22.016-15.104 36.096-15.104h921.6c28.16 0 51.2 23.040 51.2 51.2 0 0 0 0 0 0v537.6s0 0 0 0zM307.2 755.2c0 56.576 45.824 102.4 102.4 102.4h204.8c56.576 0 102.4-45.824 102.4-102.4v-179.2h-409.6v179.2zM921.6 473.6v-435.2h-819.2v435.2h819.2zM614.4 294.4c0 56.576-45.824 102.4-102.4 102.4s-102.4-45.824-102.4-102.4c0-37.888 20.736-70.4 51.2-88.32v-39.936c0-28.16 23.040-51.2 51.2-51.2s51.2 23.040 51.2 51.2v39.936c30.464 17.664 51.2 50.432 51.2 88.32z" />
<glyph unicode="&#xe94c;" glyph-name="lock-open" d="M652.8 332.8h-39.936c-17.664 30.464-50.432 51.2-88.32 51.2-56.576 0-102.4-45.824-102.4-102.4s45.824-102.4 102.4-102.4c37.888 0 70.4 20.736 88.32 51.2h39.936c28.16 0 51.2 23.040 51.2 51.2s-23.040 51.2-51.2 51.2zM1024 524.8c0 28.16-23.040 51.2-51.2 51.2 0 0 0 0 0 0h-665.6v179.2c0 56.576 45.824 102.4 102.4 102.4h204.8c56.576 0 102.4-45.824 102.4-102.4v-25.6c0-28.16 23.040-51.2 51.2-51.2s51.2 23.040 51.2 51.2v25.6c0 112.896-91.904 204.8-204.8 204.8h-204.8c-112.896 0-204.8-91.904-204.8-204.8v-179.2h-153.6s0 0 0 0c-28.16 0-51.2-23.040-51.2-51.2v-537.6c0-14.080 5.632-26.88 15.104-36.096s22.016-15.104 36.096-15.104h921.6c28.16 0 51.2 23.040 51.2 51.2 0 0 0 0 0 0v537.6s0 0 0 0zM921.6 38.4h-819.2v435.2h819.2v-435.2z" />
<glyph unicode="&#xe94d;" glyph-name="material" d="M1024 908.8s0 0 0 0c0 4.864-1.024 9.472-2.048 13.824-6.144 21.504-25.6 37.376-49.152 37.376v0s-358.4 0-358.4 0v0s0 0 0 0c-21.248 0-39.424-13.056-47.104-31.232-2.56-6.144-4.096-12.8-4.096-19.968 0 0 0 0 0 0v-358.4s0 0 0 0c0-28.16 23.040-51.2 51.2-51.2h358.4c14.080 0 26.88 5.632 36.096 15.104 9.216 9.216 15.104 22.016 15.104 36.096 0 0 0 0 0 0v358.4zM665.6 857.6h256v-256h-256v256zM972.8 396.8h-921.6c-28.16 0-51.2-23.040-51.2-51.2 0 0 0 0 0 0v-358.4s0 0 0 0c0-7.168 1.536-13.824 4.096-19.968 7.68-18.432 26.112-31.232 47.104-31.232 0 0 0 0 0 0h921.344s0 0 0 0c28.16 0 51.2 23.040 51.2 51.2v358.4c0 28.16-23.040 51.2-51.2 51.2zM102.4 294.4h819.2v-256h-819.2v256zM230.4 499.2c126.976 0 230.4 103.424 230.4 230.4s-103.424 230.4-230.4 230.4-230.4-103.424-230.4-230.4 103.424-230.4 230.4-230.4zM230.4 857.6c70.656 0 128-57.344 128-128s-57.344-128-128-128-128 57.344-128 128 57.344 128 128 128z" />
<glyph unicode="&#xe94e;" glyph-name="menu" d="M972.8 755.2h-921.6c-28.277 0-51.2 22.923-51.2 51.2s22.923 51.2 51.2 51.2h921.6c28.277 0 51.2-22.923 51.2-51.2s-22.923-51.2-51.2-51.2zM972.8 38.4h-921.6c-28.277 0-51.2 22.923-51.2 51.2s22.923 51.2 51.2 51.2h921.6c28.277 0 51.2-22.923 51.2-51.2s-22.923-51.2-51.2-51.2zM972.8 396.8h-921.6c-28.277 0-51.2 22.923-51.2 51.2s22.923 51.2 51.2 51.2h921.6c28.277 0 51.2-22.923 51.2-51.2s-22.923-51.2-51.2-51.2z" />
<glyph unicode="&#xe94f;" glyph-name="mixia" d="M0 70.737v754.526c0 29.765 24.129 53.895 53.895 53.895s53.895-24.129 53.895-53.895v-754.526c0-29.765-24.129-53.895-53.895-53.895s-53.895 24.129-53.895 53.895zM911.629 70.737v754.526c0 29.765 24.129 53.895 53.895 53.895s53.895-24.129 53.895-53.895v-754.526c0-29.765-24.129-53.895-53.895-53.895s-53.895 24.129-53.895 53.895zM700 96.146l-573.826 574.027c-21.044 21.051-21.038 55.175 0.013 76.219s55.175 21.038 76.219-0.013l573.826-574.027c21.044-21.051 21.038-55.175-0.013-76.219s-55.175-21.038-76.219 0.013zM888.359 670.068l-549.823-549.631c-21.051-21.044-55.175-21.038-76.219 0.013s-21.038 55.175 0.013 76.219l549.823 549.631c21.051 21.044 55.175 21.038 76.219-0.013s21.038-55.175-0.013-76.219zM471.518 336.148l-451.215 451.215c-21.047 21.047-21.047 55.171 0 76.219s55.171 21.047 76.219 0l451.215-451.215c21.047-21.047 21.047-55.171 0-76.219s-55.171-21.047-76.219 0zM472.318 412.172l451.215 451.215c21.047 21.047 55.171 21.047 76.219 0s21.047-55.171 0-76.219l-451.215-451.215c-21.047-21.047-55.171-21.047-76.219 0s-21.047 55.171 0 76.219z" />
<glyph unicode="&#xe950;" glyph-name="mob" horiz-adv-x="666" d="M563.2 960h-460.8c-56.32 0-102.4-46.080-102.4-102.4v-819.2c0-56.32 46.080-102.4 102.4-102.4h460.8c56.32 0 102.4 46.080 102.4 102.4v819.2c0 56.32-46.080 102.4-102.4 102.4zM332.8-12.8c-28.16 0-51.2 23.040-51.2 51.2s23.040 51.2 51.2 51.2 51.2-23.040 51.2-51.2-23.040-51.2-51.2-51.2zM563.2 192c0-28.16-23.040-51.2-51.2-51.2h-358.4c-28.16 0-51.2 23.040-51.2 51.2v614.4c0 28.16 23.040 51.2 51.2 51.2h358.4c28.16 0 51.2-23.040 51.2-51.2v-614.4z" />
<glyph unicode="&#xe951;" glyph-name="more" d="M621.714 850.286c0-60.594-49.121-109.714-109.714-109.714s-109.714 49.121-109.714 109.714c0 60.594 49.121 109.714 109.714 109.714s109.714-49.121 109.714-109.714zM621.714 448c0-60.594-49.121-109.714-109.714-109.714s-109.714 49.121-109.714 109.714c0 60.594 49.121 109.714 109.714 109.714s109.714-49.121 109.714-109.714zM621.714 45.714c0-60.594-49.121-109.714-109.714-109.714s-109.714 49.121-109.714 109.714c0 60.594 49.121 109.714 109.714 109.714s109.714-49.121 109.714-109.714z" />
<glyph unicode="&#xe952;" glyph-name="mount" horiz-adv-x="1025" d="M0-12.8v657.664c0 28.277 22.923 51.2 51.2 51.2s51.2-22.923 51.2-51.2v-657.664c0-28.277-22.923-51.2-51.2-51.2s-51.2 22.923-51.2 51.2zM921.6-12.8v657.664c0 28.277 22.923 51.2 51.2 51.2s51.2-22.923 51.2-51.2v-657.664c0-28.277-22.923-51.2-51.2-51.2s-51.2 22.923-51.2 51.2zM471.041 416.379l-449.368 449.212c-19.998 19.991-20.004 52.409-0.013 72.408s52.409 20.004 72.408 0.013l449.368-449.212c19.998-19.991 20.004-52.409 0.013-72.408s-52.409-20.004-72.408-0.013zM1010.32 865.806l-457.979-457.979c-19.995-19.995-52.413-19.995-72.408 0s-19.995 52.413 0 72.408l457.979 457.979c19.995 19.995 52.413 19.995 72.408 0s19.995-52.413 0-72.408zM471.037 160.438l-449.368 449.212c-19.998 19.991-20.004 52.409-0.013 72.408s52.409 20.004 72.408 0.013l449.368-449.212c19.998-19.991 20.004-52.409 0.013-72.408s-52.409-20.004-72.408-0.013zM1010.293 609.833l-457.979-457.979c-19.995-19.995-52.413-19.995-72.408 0s-19.995 52.413 0 72.408l457.979 457.979c19.995 19.995 52.413 19.995 72.408 0s19.995-52.413 0-72.408zM972.8 857.6h-921.6c-28.277 0-51.2 22.923-51.2 51.2s22.923 51.2 51.2 51.2h921.6c28.277 0 51.2-22.923 51.2-51.2s-22.923-51.2-51.2-51.2zM972.8-64h-921.6c-28.277 0-51.2 22.923-51.2 51.2s22.923 51.2 51.2 51.2h921.6c28.277 0 51.2-22.923 51.2-51.2s-22.923-51.2-51.2-51.2z" />
<glyph unicode="&#xe953;" glyph-name="mu-bg" d="M844.8 960h-844.8v-844.8c0-98.56 80.64-179.2 179.2-179.2h844.8v844.8c0 98.56-80.64 179.2-179.2 179.2zM363.776 82.176h-43.52c-23.808 0-43.52 19.456-43.52 43.52v323.328h43.52c23.808 0 43.52-19.456 43.52-43.52v-323.328zM790.016 619.008v0c0-23.808-19.456-43.52-43.52-43.52h-190.208v-54.272h192.512v-439.296h-43.52c-23.808 0-43.52 19.456-43.52 43.52v308.736h-105.728v-352.256h-43.52c-23.808 0-43.52 19.456-43.52 43.52v450.304h-235.52v43.52c0 23.808 19.456 43.52 43.52 43.52h192v151.040h43.52c23.808 0 43.52-19.456 43.52-43.52v-107.776h233.472v-43.52z" />
<glyph unicode="&#xe954;" glyph-name="mu-font" horiz-adv-x="778" d="M451.389 748.5v150.633c0 33.502-27.365 60.867-60.867 60.867h-60.867v-211.5h-268.787c-33.502 0-60.867-27.365-60.867-60.867v-60.867h329.654v-629.898c0-33.502 27.365-60.867 60.867-60.867h60.867v493.075h148.076v-432.208c0-33.502 27.365-60.867 60.867-60.867h60.867v614.809h-269.554v75.956h266.23c33.502 0 60.867 27.365 60.867 60.867v60.867h-327.097zM120.967 449.279h-60.867v-452.667c0-33.502 27.365-60.867 60.867-60.867h60.867v452.667c0 33.502-27.365 60.867-60.867 60.867z" />
<glyph unicode="&#xe955;" glyph-name="mukezi" d="M741.744 488.697v0-22.581h122.355v-184.845c0-12.341 10.24-22.581 22.581-22.581h22.581v207.688h99.774c12.341 0 22.581 10.24 22.581 22.581v0 22.581h-267.29c-12.341 0-22.581-10.24-22.581-22.581zM991.967 553.026v22.581h-97.411c-12.341 0-22.581-10.24-22.581-22.581v-22.581h97.411c12.341 0 22.581 10.24 22.581 22.581zM764.587 639.934c-12.341 0-22.581-10.24-22.581-22.581v-22.581h267.29c12.341 0 22.581 10.24 22.581 22.581v22.581h-267.29zM371.003 464.804v-183.532c0-12.341 10.24-22.581 22.581-22.581h22.581v183.532h199.286v-83.233c0-12.341 10.24-22.581 22.581-22.581h22.581v128.394s0 0 0 0c0 0 0 0 0 0v22.581h-267.29c-12.341 0-22.581-10.24-22.581-22.581zM468.414 337.723h-22.581v-56.451c0-12.341 10.24-22.581 22.581-22.581h22.581v56.451c0 12.341-10.24 22.581-22.581 22.581zM586.306 390.498s0 1.575 0 2.363v20.217h-118.154c-12.341 0-22.581-10.24-22.581-22.581v-22.581h95.311v-86.646s-0.263 0-0.263 0v0-22.581h20.217s1.575 0 2.363 0h22.581s51.988 0 51.988 0c12.341 0 22.581 10.24 22.581 22.581v0 22.581h-74.568v86.646zM168.041 617.091c0 12.341-10.24 22.581-22.581 22.581h-22.581v-78.769h-100.299c-12.341 0-22.581-10.24-22.581-22.581v0-22.581h122.88v-234.732c0-12.341 10.24-22.581 22.581-22.581h22.581v183.795h55.138v-160.952c0-12.341 10.24-22.581 22.581-22.581h22.581v228.693h-100.299v28.357h99.249c12.341 0 22.581 10.24 22.581 22.581v0 22.581h-121.83v56.189zM512 644.923h-22.581v-21.53h-95.836c-12.341 0-22.581-10.24-22.581-22.581v-22.581h118.679v-17.067h-95.836c-12.341 0-22.581-10.24-22.581-22.581v0-22.581h267.29c12.341 0 22.581 10.24 22.581 22.581v0 22.581h-126.031v17.067h103.45c12.341 0 22.581 10.24 22.581 22.581v22.581h-126.031c-0.525 12.078-10.503 21.53-22.581 21.53zM45.161 449.575h-22.581v-168.566c0-12.341 10.24-22.581 22.581-22.581h22.581v168.566c0 12.341-10.24 22.581-22.581 22.581z" />
<glyph unicode="&#xe956;" glyph-name="next" horiz-adv-x="1036" d="M51.809 495.016h932.558c28.613 0 51.809-23.196 51.809-51.809s-23.196-51.809-51.809-51.809h-932.558c-28.613 0-51.809 23.196-51.809 51.809s23.196 51.809 51.809 51.809zM492.3 24.23l454.266 454.266c20.233 20.233 53.036 20.233 73.269 0s20.233-53.036 0-73.269l-454.266-454.266c-20.233-20.233-53.036-20.233-73.269 0s-20.233 53.036 0 73.269zM565.335 944.805l454.266-454.266c20.233-20.233 20.233-53.036 0-73.269s-53.036-20.233-73.269 0l-454.266 454.266c-20.233 20.233-20.233 53.036 0 73.269s53.036 20.233 73.269 0z" />
<glyph unicode="&#xe957;" glyph-name="normalscreen" d="M14.926 872.243l167.021-167.021h-20.073c-28.309 0-51.47-23.162-51.47-51.47s23.162-51.47 51.47-51.47h143.087s0.515 0 1.029 0c13.382 0 26.765 4.89 36.801 14.926s15.184 23.419 14.926 36.801c0 0.257 0 0.515 0 1.029v143.087c0 28.309-23.162 51.47-51.47 51.47v0c-28.309 0-51.47-23.162-51.47-51.47v-20.073s-167.021 167.021-167.021 167.021c-20.073 20.073-52.757 20.073-72.83 0s-20.073-52.757 0-72.83zM936.243 945.074l-167.021-167.021v20.073c0 28.309-23.162 51.47-51.47 51.47s-51.47-23.162-51.47-51.47v-143.087s0-0.515 0-1.029c0-13.382 4.89-26.765 14.926-36.801s23.419-15.184 36.801-14.926c0.257 0 0.515 0 1.029 0h143.087c28.309 0 51.47 23.162 51.47 51.47v0c0 28.309-23.162 51.47-51.47 51.47h-20.073s167.021 167.021 167.021 167.021c20.073 20.073 20.073 52.757 0 72.83s-52.757 20.073-72.83 0zM14.926 23.757l167.021 167.021h-20.073c-28.309 0-51.47 23.162-51.47 51.47s23.162 51.47 51.47 51.47h143.087s0.515 0 1.029 0c13.382 0 26.765-4.89 36.801-14.926s15.184-23.419 14.926-36.801c0-0.257 0-0.515 0-1.029v-143.087c0-28.309-23.162-51.47-51.47-51.47v0c-28.309 0-51.47 23.162-51.47 51.47v20.073s-167.021-167.021-167.021-167.021c-20.073-20.073-52.757-20.073-72.83 0s-20.073 52.757 0 72.83zM936.243-49.074l-167.021 167.021v-20.073c0-28.309-23.162-51.47-51.47-51.47s-51.47 23.162-51.47 51.47v143.087s0 0.515 0 1.029c0 13.382 4.89 26.765 14.926 36.801s23.419 15.184 36.801 14.926c0.257 0 0.515 0 1.029 0h143.087c28.309 0 51.47-23.162 51.47-51.47v0c0-28.309-23.162-51.47-51.47-51.47h-20.073s167.021-167.021 167.021-167.021c20.073-20.073 20.073-52.757 0-72.83s-52.757-20.073-72.83 0z" />
<glyph unicode="&#xe958;" glyph-name="one" d="M51.2 499.2h921.6c28.277 0 51.2-22.923 51.2-51.2s-22.923-51.2-51.2-51.2h-921.6c-28.277 0-51.2 22.923-51.2 51.2s22.923 51.2 51.2 51.2z" />
<glyph unicode="&#xe959;" glyph-name="order1" d="M64 960h317.184c35.346 0 64-28.654 64-64v-896c0-35.346-28.654-64-64-64h-317.184c-35.346 0-64 28.654-64 64v896c0 35.346 28.654 64 64 64zM642.816 960h317.184c35.346 0 64-28.654 64-64v-317.184c0-35.346-28.654-64-64-64h-317.184c-35.346 0-64 28.654-64 64v317.184c0 35.346 28.654 64 64 64zM642.816 381.184h317.184c35.346 0 64-28.654 64-64v-317.184c0-35.346-28.654-64-64-64h-317.184c-35.346 0-64 28.654-64 64v317.184c0 35.346 28.654 64 64 64z" />
<glyph unicode="&#xe95a;" glyph-name="order2" d="M64.256 960h317.952c35.488 0 64.256-28.768 64.256-64.256v-317.952c0-35.488-28.768-64.256-64.256-64.256h-317.952c-35.488 0-64.256 28.768-64.256 64.256v317.952c0 35.488 28.768 64.256 64.256 64.256zM64.256 382.464h317.952c35.488 0 64.256-28.768 64.256-64.256v-317.952c0-35.488-28.768-64.256-64.256-64.256h-317.952c-35.488 0-64.256 28.768-64.256 64.256v317.952c0 35.488 28.768 64.256 64.256 64.256zM641.792 960h317.952c35.488 0 64.256-28.768 64.256-64.256v-317.952c0-35.488-28.768-64.256-64.256-64.256h-317.952c-35.488 0-64.256 28.768-64.256 64.256v317.952c0 35.488 28.768 64.256 64.256 64.256zM641.792 382.464h317.952c35.488 0 64.256-28.768 64.256-64.256v-317.952c0-35.488-28.768-64.256-64.256-64.256h-317.952c-35.488 0-64.256 28.768-64.256 64.256v317.952c0 35.488 28.768 64.256 64.256 64.256z" />
<glyph unicode="&#xe95b;" glyph-name="order3" d="M64.256 960h895.488c35.488 0 64.256-28.768 64.256-64.256v-317.952c0-35.488-28.768-64.256-64.256-64.256h-895.488c-35.488 0-64.256 28.768-64.256 64.256v317.952c0 35.488 28.768 64.256 64.256 64.256zM64.256 382.464h895.488c35.488 0 64.256-28.768 64.256-64.256v-317.952c0-35.488-28.768-64.256-64.256-64.256h-895.488c-35.488 0-64.256 28.768-64.256 64.256v317.952c0 35.488 28.768 64.256 64.256 64.256z" />
<glyph unicode="&#xe95c;" glyph-name="pause" d="M358.4 286.976v324.096c0 28.277 22.923 51.2 51.2 51.2s51.2-22.923 51.2-51.2v-324.096c0-28.277-22.923-51.2-51.2-51.2s-51.2 22.923-51.2 51.2zM563.2 286.976v324.096c0 28.277 22.923 51.2 51.2 51.2s51.2-22.923 51.2-51.2v-324.096c0-28.277-22.923-51.2-51.2-51.2s-51.2 22.923-51.2 51.2zM512 960c-282.88 0-512-229.12-512-512s229.12-512 512-512 512 229.12 512 512-229.12 512-512 512zM512 38.4c-226.304 0-409.6 183.296-409.6 409.6s183.296 409.6 409.6 409.6 409.6-183.296 409.6-409.6-183.296-409.6-409.6-409.6z" />
<glyph unicode="&#xe95d;" glyph-name="pen" d="M632.902 751.558c20.171-20.171 20.171-52.876 0-73.047l-489.597-489.597c-20.171-20.171-52.876-20.171-73.047 0s-20.171 52.876 0 73.047l489.597 489.597c20.171 20.171 52.876 20.171 73.047 0zM815.492 569.007c20.171-20.171 20.171-52.876 0-73.047l-489.597-489.597c-20.171-20.171-52.876-20.171-73.047 0s-20.171 52.876 0 73.047l489.597 489.597c20.171 20.171 52.876 20.171 73.047 0zM826.192 944.839l182.617-182.617c20.171-20.171 20.171-52.876 0-73.047s-52.876-20.171-73.047 0l-182.617 182.617c-20.171 20.171-20.171 52.876 0 73.047s52.876 20.171 73.047 0zM735.807 854.448l182.617-182.617c20.171-20.171 20.171-52.876 0-73.047s-52.876-20.171-73.047 0l-182.617 182.617c-20.171 20.171-20.171 52.876 0 73.047s52.876 20.171 73.047 0zM645.423 764.057l182.617-182.617c20.171-20.171 20.171-52.876 0-73.047s-52.876-20.171-73.047 0l-182.617 182.617c-20.171 20.171-20.171 52.876 0 73.047s52.876 20.171 73.047 0zM15.496-48.504c-48.553 48.553 31.249 286.927 48.811 304.488 77.22 77.22 332.897-178.458 255.677-255.677-17.82-17.82-256.194-97.364-304.488-48.811z" />
<glyph unicode="&#xe95e;" glyph-name="people" d="M639.744 482.304c76.544 44.288 128.256 126.72 128.256 221.696 0 141.312-114.688 256-256 256s-256-114.688-256-256c0-94.72 51.712-177.408 128.256-221.696-220.672-56.832-384.256-257.024-384.256-495.104 0-28.16 23.040-51.2 51.2-51.2s51.2 23.040 51.2 51.2c0 225.792 183.808 409.6 409.6 409.6s409.6-183.808 409.6-409.6c0-28.16 23.040-51.2 51.2-51.2s51.2 23.040 51.2 51.2c0 238.080-163.584 438.272-384.256 495.104zM512 857.6c84.736 0 153.6-68.864 153.6-153.6s-68.864-153.6-153.6-153.6-153.6 68.864-153.6 153.6 68.864 153.6 153.6 153.6z" />
<glyph unicode="&#xe95f;" glyph-name="play" d="M512 960c-282.88 0-512-229.12-512-512s229.12-512 512-512 512 229.12 512 512-229.12 512-512 512zM512 38.4c-226.304 0-409.6 183.296-409.6 409.6s183.296 409.6 409.6 409.6 409.6-183.296 409.6-409.6-183.296-409.6-409.6-409.6zM384 698.112v-504.32c0-50.176 45.056-12.032 62.208 0l283.136 230.144c17.152 12.032 17.152 31.744 0 43.776l-283.136 230.144c-17.152 12.032-62.208 58.368-62.208 0z" />
<glyph unicode="&#xe960;" glyph-name="prev" horiz-adv-x="1036" d="M0 443.208c0 4.145 0.518 8.030 1.554 11.657 0 12.952 5.181 25.904 15.025 35.748l454.104 454.363c20.205 20.205 53.104 20.205 73.309 0s20.205-53.104 0-73.309l-376.65-376.65h817.024c28.495 0 51.809-23.314 51.809-51.809s-23.314-51.809-51.809-51.809h-807.439s367.065-367.065 367.065-367.065c20.205-20.205 20.205-53.104 0-73.309s-53.104-20.205-73.309 0l-454.104 454.363s-0.518 0.518-0.777 1.036c-9.844 9.326-15.802 22.278-15.802 36.784z" />
<glyph unicode="&#xe961;" glyph-name="qq" d="M60.61 376.597c-37.639-88.839-44.004-173.803-13.561-189.578 21.034-10.794 53.691 13.838 84.411 59.503 12.177-49.816 42.344-94.651 85.241-130.906-45.111-16.605-74.448-43.728-74.448-74.724 0-50.646 79.706-91.606 177.955-91.606 88.562 0 162.179 33.211 175.741 76.938 3.598 0 17.712 0 21.034 0 13.561-43.728 87.178-76.938 175.741-76.938 98.249 0 177.955 40.96 177.955 91.606 0 30.72-29.336 57.842-74.448 74.724 42.897 36.255 73.064 81.090 85.241 130.906 30.72-45.665 63.377-70.573 84.411-59.503 30.443 15.775 24.355 100.739-13.561 189.578-29.613 70.019-70.019 121.219-100.739 132.843 0.554 4.428 0.554 8.856 0.554 13.561 0 27.122-7.472 52.030-20.203 72.234 0 1.661 0 3.321 0 4.705 0 12.454-3.044 24.078-8.026 34.041-7.749 181.552-125.924 326.019-317.44 326.019s-310.244-144.19-317.717-326.019c-4.982-10.24-8.026-21.864-8.026-34.041 0-1.661 0-3.321 0-4.705-12.731-20.203-20.203-45.111-20.203-72.234 0-4.428 0-8.856 0.554-13.561-30.443-11.347-70.85-62.824-100.463-132.843v0z" />
<glyph unicode="&#xe962;" glyph-name="quit" d="M101.888 909.056v-922.112c0-28.136-22.808-50.944-50.944-50.944h-0.256c-28.136 0-50.944 22.808-50.944 50.944v922.112c0 28.136 22.808 50.944 50.944 50.944h0.256c28.136 0 50.944-22.808 50.944-50.944zM51.2 960h459.008c28.277 0 51.2-22.923 51.2-51.2s-22.923-51.2-51.2-51.2h-459.008c-28.277 0-51.2 22.923-51.2 51.2s22.923 51.2 51.2 51.2zM51.2 38.4h459.008c28.277 0 51.2-22.923 51.2-51.2s-22.923-51.2-51.2-51.2h-459.008c-28.277 0-51.2 22.923-51.2 51.2s22.923 51.2 51.2 51.2zM1009.152 489.728l-193.024 193.792c-19.968 19.968-52.224 19.968-72.192 0s-19.968-52.48 0-72.448l111.616-111.872h-549.12c-28.16 0-51.2-23.040-51.2-51.2s23.040-51.2 51.2-51.2h548.864l-111.616-111.872c-19.968-19.968-19.968-52.48 0-72.448s52.224-19.968 72.192 0l193.024 193.792c11.264 11.264 15.872 26.88 14.336 41.728 1.536 14.848-3.072 30.464-14.336 41.728z" />
<glyph unicode="&#xe963;" glyph-name="rabbit" d="M270.704 433.034c20.48 0 41.223 3.938 61.177 11.815 40.697 16.279 72.73 47.787 89.797 88.222 17.329 40.435 17.854 85.333 1.575 126.031l-79.557 197.711c-33.871 84.283-129.969 125.243-214.252 91.372s-125.243-129.969-91.372-214.252l79.557-197.711c25.731-64.066 87.696-103.188 153.075-103.188zM190.884 878.868c33.083 0 64.591-19.692 77.456-52.25l79.557-197.711c17.067-42.798-3.676-91.372-46.211-108.702-42.798-17.067-91.372 3.676-108.702 46.211l-79.557 197.711c-17.067 42.798 3.676 91.372 46.211 108.702 10.24 4.201 20.743 6.039 30.983 6.039zM750.933 433.034c-20.48 0-41.223 3.938-61.177 11.815-40.697 16.279-72.73 47.787-89.797 88.222-17.329 40.435-17.854 85.333-1.575 126.031l79.557 197.711c33.871 84.283 129.969 125.243 214.252 91.372s125.243-129.969 91.372-214.252l-79.557-197.711c-25.731-64.066-87.696-103.188-153.075-103.188zM830.753 878.868c-33.083 0-64.591-19.692-77.456-52.25l-79.557-197.711c-17.067-42.798 3.676-91.372 46.211-108.702 42.798-17.067 91.372 3.676 108.702 46.211l79.557 197.711c17.067 42.798-3.676 91.372-46.211 108.702-10.24 4.201-20.743 6.039-30.983 6.039zM718.638 120.32c0-30.742-24.921-55.664-55.664-55.664s-55.664 24.921-55.664 55.664c0 30.742 24.921 55.664 55.664 55.664s55.664-24.921 55.664-55.664zM403.561 120.32c0-30.742-24.921-55.664-55.664-55.664s-55.664 24.921-55.664 55.664c0 30.742 24.921 55.664 55.664 55.664s55.664-24.921 55.664-55.664zM913.723-65.575c-28.882 0-52.513 23.631-52.513 52.513 0 196.135-159.639 355.774-355.774 355.774s-355.774-159.639-355.774-355.774c0-28.882-23.631-52.513-52.513-52.513s-52.513 23.631-52.513 52.513c0 254.162 206.638 460.8 460.8 460.8s460.8-206.638 460.8-460.8c0-28.882-23.631-52.513-52.513-52.513zM822.167 766.533c22.317-9.021 33.096-34.426 24.075-56.744l-26.371-65.239c-9.021-22.317-34.426-33.096-56.744-24.075s-33.096 34.426-24.075 56.744l26.371 65.239c9.021 22.317 34.426 33.096 56.744 24.075z" />
<glyph unicode="&#xe964;" glyph-name="radish" horiz-adv-x="538" d="M409.239 724.526c4.389 9.037 9.811 19.106 16.266 29.951 17.041 28.143 45.442 65.581 82.106 84.171 19.623 9.811 27.627 33.823 17.815 53.704-9.811 19.623-33.823 27.627-53.704 17.815-70.229-35.114-114.897-109.475-136.585-154.142-8.779 2.324-17.815 4.131-26.852 5.422v158.532c0 21.947-17.815 40.020-40.020 40.020s-40.020-17.815-40.020-40.020v-158.79c-9.037-1.291-18.074-3.098-26.852-5.422-21.688 44.668-66.098 119.028-136.585 154.142-19.623 9.811-43.635 1.807-53.704-17.815-9.811-19.623-1.807-43.635 17.815-53.704 48.024-24.012 81.331-78.749 98.63-113.864-76.167-47.25-127.548-132.454-127.548-229.277 0-121.093 175.056-437.64 234.441-539.627 15.492-26.336 53.704-26.336 68.938 0 60.159 103.278 234.441 418.534 234.441 539.627 0 96.823-51.381 181.769-128.323 229.277zM268.781 57.351c-32.533 58.868-82.364 151.818-122.642 240.121 0.775 0.516 1.291 1.291 2.066 1.807 71.004 58.868 173.249 57.836 242.961-1.807-40.278-88.561-90.11-181.253-122.642-240.121zM113.606 373.382c-28.918 73.327-33.823 107.409-33.823 121.868 0 104.052 84.688 188.998 188.998 188.998s188.998-84.688 188.998-188.998c0-14.717-4.906-48.799-33.823-121.868-93.208 65.84-217.142 65.581-310.092 0z" />
<glyph unicode="&#xe965;" glyph-name="rectangle" d="M1024 908.8c0 28.16-23.040 51.2-51.2 51.2h-921.6c-28.16 0-51.2-23.040-51.2-51.2 0 0 0 0 0 0v-921.6s0 0 0 0c0-28.16 23.040-51.2 51.2-51.2h921.6c14.080 0 26.88 5.888 36.096 15.104s15.104 22.016 15.104 36.096c0 0 0 0 0 0v921.6zM102.4 857.6h819.2v-819.2h-819.2v819.2z" />
<glyph unicode="&#xe966;" glyph-name="redo" d="M614.912 674.304v208.896l408.064-370.176-408.064-370.432v224c-113.408 0-463.616 0-614.912-346.368v38.4c0 154.112 151.296 648.448 614.912 615.68z" />
<glyph unicode="&#xe967;" glyph-name="reduction" d="M384 960h256c28.277 0 51.2-22.923 51.2-51.2s-22.923-51.2-51.2-51.2h-256c-28.277 0-51.2 22.923-51.2 51.2s22.923 51.2 51.2 51.2zM51.2 832h921.6c28.277 0 51.2-22.923 51.2-51.2s-22.923-51.2-51.2-51.2h-921.6c-28.277 0-51.2 22.923-51.2 51.2s22.923 51.2 51.2 51.2zM512 524.8h358.4c28.277 0 51.2-22.923 51.2-51.2s-22.923-51.2-51.2-51.2h-358.4c-28.277 0-51.2 22.923-51.2 51.2s22.923 51.2 51.2 51.2zM230.4 38.4h563.2c28.277 0 51.2-22.923 51.2-51.2s-22.923-51.2-51.2-51.2h-563.2c-28.277 0-51.2 22.923-51.2 51.2s22.923 51.2 51.2 51.2zM179.2-12.8v614.4c0 28.277 22.923 51.2 51.2 51.2s51.2-22.923 51.2-51.2v-614.4c0-28.277-22.923-51.2-51.2-51.2s-51.2 22.923-51.2 51.2zM742.4-12.8v179.2c0 28.277 22.923 51.2 51.2 51.2s51.2-22.923 51.2-51.2v-179.2c0-28.277-22.923-51.2-51.2-51.2s-51.2 22.923-51.2 51.2zM833.407 438.228l-100.647 100.647c-19.995 19.995-19.995 52.413 0 72.408s52.413 19.995 72.408 0l100.647-100.647c19.995-19.995 19.995-52.413 0-72.408s-52.413-19.995-72.408 0zM732.587 408.234l100.647 100.647c19.995 19.995 52.413 19.995 72.408 0s19.995-52.413 0-72.408l-100.647-100.647c-19.995-19.995-52.413-19.995-72.408 0s-19.995 52.413 0 72.408zM460.8-12.8v486.4c0 28.277 22.923 51.2 51.2 51.2s51.2-22.923 51.2-51.2v-486.4c0-28.277-22.923-51.2-51.2-51.2s-51.2 22.923-51.2 51.2z" />
<glyph unicode="&#xe968;" glyph-name="refresh" d="M1023.744 457.216v0c-2.304 26.112-24.064 46.592-50.688 46.592s-46.336-18.688-50.432-43.008h-1.28c0-2.816 0.512-5.376 0.512-8.192 0-226.304-183.296-409.6-409.6-409.6-116.992 0-222.208 49.408-296.704 128h15.104c28.16 0 51.2 23.040 51.2 51.2s-23.040 51.2-51.2 51.2h-153.856c-28.16 0-51.2-23.040-51.2-51.2v-153.6c0-28.16 23.040-51.2 51.2-51.2s51.2 23.040 51.2 51.2v45.824c93.696-106.496 230.912-173.824 384-173.824 282.88 0 512 229.12 512 512 0 1.536 0 3.072 0 4.608zM102.4 427.008s0 0 0 0h0.512c0 2.816-0.512 5.376-0.512 8.192 0 226.304 183.296 409.6 409.6 409.6 116.992 0 222.208-49.408 296.704-128h-15.104c-28.16 0-51.2-23.040-51.2-51.2s23.040-51.2 51.2-51.2h153.6c28.16 0 51.2 23.040 51.2 51.2v153.6c0 28.16-23.040 51.2-51.2 51.2s-51.2-23.040-51.2-51.2v-45.824c-93.696 106.496-230.912 173.824-384 173.824-282.88 0-512-229.12-512-512 0-1.536 0-3.072 0-4.608v0s-0.256-2.304-0.256-3.584c0-28.16 23.040-51.2 51.2-51.2s51.2 23.040 51.2 51.2z" />
<glyph unicode="&#xe969;" glyph-name="right" d="M297.529 96.31l-282.571 282.571c-19.995 19.995-19.995 52.413 0 72.408s52.413 19.995 72.408 0l282.571-282.571c19.995-19.995 19.995-52.413 0-72.408s-52.413-19.995-72.408 0zM1005.459 731.805l-635.559-635.559c-19.995-19.995-52.413-19.995-72.408 0s-19.995 52.413 0 72.408l635.559 635.559c19.995 19.995 52.413 19.995 72.408 0s19.995-52.413 0-72.408z" />
<glyph unicode="&#xe96a;" glyph-name="rotate" d="M921.6-12.8v921.6c0 28.277 22.923 51.2 51.2 51.2s51.2-22.923 51.2-51.2v-921.6c0-28.277-22.923-51.2-51.2-51.2s-51.2 22.923-51.2 51.2zM972.8-64h-921.6c-28.277 0-51.2 22.923-51.2 51.2s22.923 51.2 51.2 51.2h921.6c28.277 0 51.2-22.923 51.2-51.2s-22.923-51.2-51.2-51.2zM446.208 89.6c-28.16 0-51.2 23.040-51.2 51.2 0 229.632 186.112 486.4 435.2 486.4 28.16 0 51.2-23.040 51.2-51.2s-23.040-51.2-51.2-51.2c-187.392 0-332.8-206.336-332.8-384 0-28.16-23.040-51.2-51.2-51.2zM437.248 89.6c-13.056 0-26.112 5.12-36.096 15.104-54.528 54.528-93.696 122.624-113.152 196.864-7.168 27.392 9.216 55.296 36.608 62.464s55.296-9.216 62.464-36.608c14.848-56.576 44.8-108.8 86.528-150.528 19.968-19.968 19.968-52.48 0-72.448-9.984-9.984-23.040-15.104-36.096-15.104zM99.072 89.6c-3.584 0-7.424 0.512-11.008 1.28-27.648 6.144-45.056 33.28-38.912 60.928 81.664 371.456 373.76 668.16 743.936 755.712 27.392 6.656 55.040-10.496 61.696-38.144 6.4-27.392-10.496-55.040-38.144-61.696-332.032-78.592-594.176-344.832-667.648-678.144-5.376-23.808-26.368-40.192-49.92-40.192z" />
<glyph unicode="&#xe96b;" glyph-name="ruler" d="M460.8 39.68h-358.4v459.52c0 28.16-23.040 51.2-51.2 51.2s-51.2-23.040-51.2-51.2v-509.44c0-14.336 6.144-27.392 15.616-36.608 9.216-9.728 22.272-15.872 36.864-15.872h408.32c28.16 0 51.2 23.040 51.2 51.2s-23.040 51.2-51.2 51.2zM1024-12.8s0 0 0 0v921.6c0 28.16-23.040 51.2-51.2 51.2h-921.6s0 0 0 0c-28.16 0-51.2-23.040-51.2-51.2v-204.8c0-28.16 23.040-51.2 51.2-51.2h588.8v-665.344s0 0 0 0c0-28.16 23.040-51.2 51.2-51.2h281.6s0 0 0 0v0c14.080 0 26.88 5.888 36.096 15.104 3.328 3.328 6.144 7.424 8.448 11.52 1.28 2.304 2.304 4.608 3.328 6.912 2.048 5.632 3.328 11.52 3.328 17.664zM742.4 140.032s0.512 0 0.768 0h51.2c28.16 0 51.2 23.040 51.2 51.2s-23.040 51.2-51.2 51.2h-51.2s-0.512 0-0.768 0v102.4h50.432c28.16 0 51.2 23.040 51.2 51.2s-23.040 51.2-51.2 51.2h-50.432v102.4h50.432c28.16 0 51.2 23.040 51.2 51.2s-23.040 51.2-51.2 51.2h-50.432v51.968c0 21.248-13.056 39.424-31.232 47.104-6.144 2.56-12.8 4.096-19.968 4.096v0s-25.6 0-25.6 0v25.6c0 28.16-23.040 51.2-51.2 51.2v0c-28.16 0-51.2-23.040-51.2-51.2v-25.6h-102.4v25.6c0 28.16-23.040 51.2-51.2 51.2v0c-28.16 0-51.2-23.040-51.2-51.2v-25.6h-102.4v24.064c0 28.16-23.040 51.2-51.2 51.2v0c-28.16 0-51.2-23.040-51.2-51.2v-24.064h-51.2v102.4h819.2v-819.2h-179.2v101.632z" />
<glyph unicode="&#xe96c;" glyph-name="save" d="M0-12.8v921.6c0 28.277 22.923 51.2 51.2 51.2s51.2-22.923 51.2-51.2v-921.6c0-28.277-22.923-51.2-51.2-51.2s-51.2 22.923-51.2 51.2zM921.6-12.8v921.6c0 28.277 22.923 51.2 51.2 51.2s51.2-22.923 51.2-51.2v-921.6c0-28.277-22.923-51.2-51.2-51.2s-51.2 22.923-51.2 51.2zM972.8 857.6h-921.6c-28.277 0-51.2 22.923-51.2 51.2s22.923 51.2 51.2 51.2h921.6c28.277 0 51.2-22.923 51.2-51.2s-22.923-51.2-51.2-51.2zM793.6 422.4h-563.2c-28.277 0-51.2 22.923-51.2 51.2s22.923 51.2 51.2 51.2h563.2c28.277 0 51.2-22.923 51.2-51.2s-22.923-51.2-51.2-51.2zM281.6 908.8v-435.2c0-28.277-22.923-51.2-51.2-51.2s-51.2 22.923-51.2 51.2v435.2c0 28.277 22.923 51.2 51.2 51.2s51.2-22.923 51.2-51.2zM844.8 908.8v-435.2c0-28.277-22.923-51.2-51.2-51.2s-51.2 22.923-51.2 51.2v435.2c0 28.277 22.923 51.2 51.2 51.2s51.2-22.923 51.2-51.2zM665.6 780.8v-92.672c0-28.277-22.923-51.2-51.2-51.2s-51.2 22.923-51.2 51.2v92.672c0 28.277 22.923 51.2 51.2 51.2s51.2-22.923 51.2-51.2zM972.8-64h-921.6c-28.277 0-51.2 22.923-51.2 51.2s22.923 51.2 51.2 51.2h921.6c28.277 0 51.2-22.923 51.2-51.2s-22.923-51.2-51.2-51.2z" />
<glyph unicode="&#xe96d;" glyph-name="search" d="M1009.010 24.133l-180.402 180.402c63.58 79.604 101.831 180.402 101.831 290.245 0 256.905-208.315 465.22-465.22 465.22s-465.22-208.315-465.22-465.22 208.315-465.22 465.22-465.22c109.844 0 210.641 38.251 290.245 101.831l180.402-180.402c20.16-20.16 52.983-20.16 73.143 0s20.16 52.983 0 73.143zM465.22 132.943c-199.786 0-361.837 162.051-361.837 361.837s162.051 361.837 361.837 361.837 361.837-162.051 361.837-361.837-162.051-361.837-361.837-361.837z" />
<glyph unicode="&#xe96e;" glyph-name="sendBackwards" d="M1024-12.8c0-28.277-22.923-51.2-51.2-51.2h-921.6c-28.277 0-51.2 22.923-51.2 51.2s22.923 51.2 51.2 51.2h921.6c28.277 0 51.2-22.923 51.2-51.2zM836.864 908.8c0-28.277-22.923-51.2-51.2-51.2h-565.248c-28.277 0-51.2 22.923-51.2 51.2s22.923 51.2 51.2 51.2h565.248c28.277 0 51.2-22.923 51.2-51.2zM348.874 491.431l193.691-193.691c19.995-19.995 19.995-52.413 0-72.408s-52.413-19.995-72.408 0l-193.691 193.691c-19.995 19.995-19.995 52.413 0 72.408s52.413 19.995 72.408 0zM747.255 419.207l-193.691-193.691c-19.995-19.995-52.413-19.995-72.408 0s-19.995 52.413 0 72.408l193.691 193.691c19.995 19.995 52.413 19.995 72.408 0s19.995-52.413 0-72.408zM563.2 630.784v-365.568c0-28.277-22.923-51.2-51.2-51.2s-51.2 22.923-51.2 51.2v365.568c0 28.277 22.923 51.2 51.2 51.2s51.2-22.923 51.2-51.2z" />
<glyph unicode="&#xe96f;" glyph-name="sendToBack" horiz-adv-x="665" d="M0 908.966c0 28.185 22.849 51.034 51.034 51.034h563.417c28.185 0 51.034-22.849 51.034-51.034s-22.849-51.034-51.034-51.034h-563.417c-28.185 0-51.034 22.849-51.034 51.034zM178.996 216.317l193.063-193.063c19.93-19.93 19.93-52.243 0-72.173s-52.243-19.93-72.173 0l-193.063 193.063c-19.93 19.93-19.93 52.243 0 72.173s52.243 19.93 72.173 0zM576.395 143.924l-193.063-193.063c-19.93-19.93-52.243-19.93-72.173 0s-19.93 52.243 0 72.173l193.063 193.063c19.93 19.93 52.243 19.93 72.173 0s19.93-52.243 0-72.173zM392.708 602.761v-612.41c0-28.185-22.849-51.034-51.034-51.034s-51.034 22.849-51.034 51.034v612.41c0 28.185 22.849 51.034 51.034 51.034s51.034-22.849 51.034-51.034z" />
</font>
</defs>
</svg>
